<?xml version="1.0" standalone="no"?>
<!DOCTYPE svg PUBLIC "-//W3C//DTD SVG 1.1//EN" "http://www.w3.org/Graphics/SVG/1.1/DTD/svg11.dtd" >
<svg xmlns="http://www.w3.org/2000/svg">
<metadata></metadata>
<defs>
<font id="brandon_text_regularregular" horiz-adv-x="1228" >
<font-face units-per-em="2048" ascent="1434" descent="-614" />
<missing-glyph horiz-adv-x="491" />
<glyph unicode="&#xfb01;" horiz-adv-x="1181" d="M47 860v41q0 20 13 32.5t32 12.5h152v125q0 182 98.5 282.5t261.5 100.5q103 0 190.5 -37t135.5 -76q12 -7 15 -25t-5 -28l-39 -57q-20 -29 -59 -2q-118 88 -240 88q-99 0 -153 -63t-54 -183v-125h586q18 0 31.5 -13.5t13.5 -31.5v-856q0 -19 -13 -32t-32 -13h-61 q-18 0 -32 13.5t-14 31.5v770h-479v-770q0 -19 -13 -32t-32 -13h-61q-19 0 -32 13t-13 32v770h-152q-19 0 -32 13t-13 32z" />
<glyph unicode="&#xfb02;" horiz-adv-x="1241" d="M47 858v43q0 20 13 32.5t32 12.5h152v109q0 100 30 178t82.5 125.5t119.5 71.5t145 24q55 0 108 -12t89 -29.5t64.5 -34.5t41.5 -29l14 -12l16 58q4 12 7.5 18t13.5 13.5t24 7.5l27 -2q18 0 31.5 -14t13.5 -32v-1341q0 -19 -13 -32t-32 -13h-59q-18 0 -31.5 13.5 t-13.5 31.5v1124q-4 6 -12.5 16t-37 35.5t-60 45t-80.5 35.5t-99 16q-101 0 -169.5 -66.5t-68.5 -195.5v-109h281q19 0 32 -12.5t13 -32.5v-43q0 -19 -13 -31t-32 -12h-281v-770q0 -19 -13 -32t-32 -13h-61q-19 0 -32 13t-13 32v770h-152q-19 0 -32 12t-13 31z" />
<glyph horiz-adv-x="0" />
<glyph horiz-adv-x="0" />
<glyph horiz-adv-x="682" />
<glyph unicode="&#xd;" horiz-adv-x="0" />
<glyph unicode=" "  horiz-adv-x="491" />
<glyph unicode="&#x09;" horiz-adv-x="491" />
<glyph unicode="&#xa0;" horiz-adv-x="491" />
<glyph unicode="!" horiz-adv-x="532" d="M150 96q0 49 34 83t82 34q50 0 83.5 -33.5t33.5 -83.5q0 -48 -34 -82t-83 -34q-47 0 -81.5 34.5t-34.5 81.5zM176 1161v234q0 15 12 27t27 12h102q15 0 27 -12t12 -27v-230l-39 -575q-2 -12 -13.5 -22.5t-24.5 -10.5h-25q-13 0 -25 10.5t-14 22.5z" />
<glyph unicode="&#x22;" horiz-adv-x="690" d="M131 1065v330q0 15 12 27t27 12h70q20 0 31 -15t5 -37l-57 -325q-3 -12 -14.5 -21.5t-22.5 -9.5h-12q-15 0 -27 12t-12 27zM440 1065v330q0 15 12 27t27 12h70q21 0 32 -15.5t5 -36.5l-58 -325q-3 -12 -14 -21.5t-22 -9.5h-13q-15 0 -27 12t-12 27z" />
<glyph unicode="#" horiz-adv-x="1140" d="M100 438v15q0 17 11 28t28 11h158l49 350h-147q-15 0 -27 12t-12 27v14q0 15 12 27t27 12h159l66 467q2 12 13 22.5t24 10.5h14q18 0 29 -13.5t8 -31.5l-61 -455h309l63 467q2 12 14 22.5t25 10.5h12q19 0 30.5 -13t8.5 -32l-61 -455h143q17 0 28 -11.5t11 -27.5v-14 q0 -16 -9.5 -27.5t-25.5 -11.5h-159l-49 -350h145q16 0 27.5 -11t11.5 -28v-15q0 -15 -10 -27t-25 -12h-164l-53 -366q-2 -14 -13 -23.5t-26 -9.5h-12q-19 0 -30 13t-9 32l53 354h-313l-51 -366q-1 -13 -13 -23t-26 -10h-13q-20 0 -31 13t-8 32l52 354h-144q-17 0 -28 11.5 t-11 27.5zM387 492h313l48 350h-310z" />
<glyph unicode="$" d="M171 182q-1 15 13 33l37 47q29 42 66 10q10 -10 30 -26t59 -43.5t93 -49.5t109 -30v528q-51 21 -86 36.5t-79.5 39.5t-74 47.5t-60.5 56.5t-49 70t-29.5 85t-11.5 104q0 52 22.5 109t66.5 112t122.5 94t178.5 47v66q0 17 11 27.5t27 10.5h15q15 0 25 -10.5t10 -27.5v-66 q79 -6 156.5 -31.5t115.5 -48.5l37 -22q8 -4 14 -12t8.5 -23.5t-10.5 -34.5l-24 -37q-16 -24 -29.5 -28.5t-42.5 8.5l-17 9q-16 10 -36.5 20.5t-48 23t-60 23t-63.5 14.5v-531q81 -34 138.5 -64.5t110.5 -69.5t85.5 -81.5t51.5 -97.5t19 -121q0 -149 -119 -252t-286 -114 v-213q0 -18 -13 -27.5t-32 -9.5q-17 0 -30 10t-13 27v213q-75 6 -144.5 28.5t-119.5 52.5t-75 48t-42 34q-25 22 -26 37zM340 1092q0 -91 59.5 -155t178.5 -118v496q-62 -6 -110 -30.5t-74.5 -58t-40 -68t-13.5 -66.5zM666 121q103 9 172 72.5t69 148.5q0 84 -58.5 146.5 t-182.5 123.5v-491z" />
<glyph unicode="%" horiz-adv-x="1386" d="M94 1180q0 115 80.5 195.5t196.5 80.5q114 0 195 -80.5t81 -195.5t-81 -196t-195 -81q-115 0 -196 80.5t-81 196.5zM211 1180q0 -68 46.5 -114t113.5 -46q64 0 109.5 46.5t45.5 113.5q0 63 -46 109t-109 46q-67 0 -113.5 -45.5t-46.5 -109.5zM285 17.5q-11 17.5 0 37.5 l702 1358q12 21 35 21h33q23 0 34.5 -18t0.5 -38l-707 -1358q-10 -20 -35 -20h-29q-23 0 -34 17.5zM741 254q0 115 80.5 195.5t196.5 80.5q114 0 195 -80.5t81 -195.5t-81 -196t-195 -81q-116 0 -196.5 80.5t-80.5 196.5zM858 254q0 -68 46 -114t114 -46q64 0 110 46.5 t46 113.5q0 63 -46.5 109.5t-109.5 46.5q-67 0 -113.5 -46t-46.5 -110z" />
<glyph unicode="&#x26;" horiz-adv-x="1361" d="M145 356q0 63 19.5 121t48 99.5t70 80.5t74.5 62t73 47v4l-49 53q-68 72 -105.5 143t-37.5 156q0 60 22.5 118t65 106.5t114 78t160.5 29.5q160 0 253 -91t93 -224q0 -206 -303 -394l338 -337q82 169 82 364q0 31 10 39t37 8h49q7 0 12.5 -1t9.5 -3.5t7 -4t5 -6t3 -6.5 t1.5 -7t0.5 -6.5v-6.5v-6q0 -118 -32 -238.5t-89 -222.5l197 -196q15 -16 21 -26.5t1.5 -28.5t-24.5 -40l-25 -22q-43 -40 -86 6l-174 180q-181 -204 -446 -204q-94 0 -170.5 30.5t-125 82.5t-74.5 119.5t-26 143.5zM289 354q0 -106 75 -177t183 -71q103 0 192.5 46.5 t157.5 128.5l-379 397q-229 -139 -229 -324zM375 1118q0 -62 33 -115.5t98 -117.5l45 -45q35 21 52 31.5t53 35.5t56.5 46.5t44.5 51t35 62.5t11 68q0 79 -58 138.5t-157 59.5q-98 0 -155.5 -61.5t-57.5 -153.5z" />
<glyph unicode="'" horiz-adv-x="380" d="M131 1065v330q0 15 12 27t27 12h70q20 0 31 -15t5 -37l-57 -325q-3 -12 -14.5 -21.5t-22.5 -9.5h-12q-15 0 -27 12t-12 27z" />
<glyph unicode="(" horiz-adv-x="694" d="M109 645q0 146 19.5 267.5t54.5 206.5t80 149t100.5 102t111.5 57.5t117 22.5q34 3 37 -20l4 -56q3 -13 -3.5 -23t-17.5 -12q-189 -37 -274.5 -210.5t-85.5 -483.5t85.5 -483.5t274.5 -210.5q11 -2 17.5 -12t3.5 -23l-4 -55q-3 -24 -37 -21q-61 3 -117 22.5t-111.5 57.5 t-100.5 102t-80 149t-54.5 206.5t-19.5 267.5z" />
<glyph unicode=")" horiz-adv-x="694" d="M61 -84q-3 13 3.5 23t17.5 12q189 37 274.5 210.5t85.5 483.5t-85.5 483.5t-274.5 210.5q-11 2 -17.5 12t-3.5 23l5 56q3 23 36 20q74 -4 140.5 -30t130.5 -86t110 -148.5t74.5 -227.5t28.5 -313t-28.5 -313t-74.5 -227.5t-110 -148.5t-130.5 -86t-140.5 -30 q-33 -3 -36 21z" />
<glyph unicode="*" horiz-adv-x="847" d="M153 1259.5q-3 16.5 5 28.5q5 7 16 25q9 12 25 16.5t28 -4.5l146 -104l-4 176q0 15 13 26t28 11h26q15 0 28 -11t13 -26l-4 -174l141 106q14 7 29.5 3.5t24.5 -15.5l16 -25q18 -33 -10 -55l-164 -102l166 -103q13 -10 16.5 -26.5t-4.5 -28.5l-14 -25q-10 -13 -27.5 -16.5 t-30.5 4.5l-143 104l4 -172q0 -15 -13 -26.5t-28 -11.5h-26q-15 0 -28 11.5t-13 26.5l4 175l-142 -103q-12 -9 -29 -5t-24 17l-16 23q-9 14 -5.5 30t15.5 27l160 99l-164 98q-12 10 -15 26.5z" />
<glyph unicode="+" d="M186 682v57q0 15 12 27t27 12h322v324q0 15 12 26t27 11h57q15 0 27 -11t12 -26v-324h324q15 0 25.5 -12t10.5 -27v-57q0 -15 -10.5 -27t-25.5 -12h-324v-321q0 -15 -12 -26t-27 -11h-57q-15 0 -27 11t-12 26v321h-322q-15 0 -27 12t-12 27z" />
<glyph unicode="," horiz-adv-x="493" d="M117 100q0 56 30 90.5t84 34.5q73 0 113.5 -63.5t40.5 -161.5q0 -191 -139 -342q-16 -16 -33 -2l-39 35q-18 17 2 37q53 56 84 113.5t31 129.5q0 26 -8 47q-25 -18 -68 -18q-46 0 -72 31t-26 69z" />
<glyph unicode="-" horiz-adv-x="784" d="M139 487v39q0 17 11 28t28 11h428q17 0 28 -11t11 -28v-39q0 -15 -11 -25.5t-28 -10.5h-428q-17 0 -28 10.5t-11 25.5z" />
<glyph unicode="." horiz-adv-x="497" d="M115 115q0 55 38.5 94t94.5 39q57 0 96 -38.5t39 -94.5t-39.5 -97t-95.5 -41q-55 0 -94 41t-39 97z" />
<glyph unicode="/" horiz-adv-x="772" d="M125 51l401 1356q3 11 14 19t23 8h45q22 0 32.5 -15t4.5 -37l-399 -1355q-3 -10 -14.5 -18.5t-22.5 -8.5h-47q-21 0 -32 15t-5 36z" />
<glyph unicode="0" horiz-adv-x="1314" d="M143 717q0 348 134 542.5t378 194.5q245 0 379.5 -194t134.5 -543q0 -347 -134.5 -542t-379.5 -195q-243 0 -377.5 195t-134.5 542zM303 717q0 -290 89.5 -442t262.5 -152q174 0 264.5 152t90.5 442q0 289 -90.5 441.5t-264.5 152.5q-173 0 -262.5 -152.5t-89.5 -441.5z " />
<glyph unicode="1" horiz-adv-x="690" d="M78 1102q-19 22 4 45l280 272q15 15 35 15h37q15 0 27 -12t12 -27v-1354q0 -17 -12 -29t-27 -12h-76q-17 0 -29 12t-12 29v1130h-2l-149 -116q-27 -20 -47 2z" />
<glyph unicode="2" horiz-adv-x="1132" d="M106 41v29q0 14 1 20.5t7 16.5t19 24q48 52 222 241t270 290q213 235 213 382q0 48 -16 93t-49.5 85.5t-93.5 64.5t-138 24q-148 0 -299 -160q-12 -12 -28 -12t-30 12l-41 41q-10 11 -11 26.5t9 28.5q6 8 17.5 22t51 50t83 63t111 49.5t137.5 22.5q110 0 198.5 -33 t144 -89t84.5 -128.5t29 -154.5q0 -67 -19 -129t-60.5 -124.5t-80 -109t-104.5 -117.5l-401 -428v-4h616q17 0 29 -12t12 -29v-55q0 -17 -12 -29t-29 -12h-801q-18 0 -29.5 11.5t-11.5 29.5z" />
<glyph unicode="3" horiz-adv-x="1153" d="M110 193.5q0 14.5 11 23.5l57 49q35 23 58 -10q10 -14 32.5 -34t62 -47t98.5 -45.5t122 -18.5q127 0 215 71t88 195q0 125 -93 198.5t-280 73.5h-119q-40 0 -40 47v52q0 25 9.5 35t35.5 10h116q161 0 247.5 72.5t86.5 183.5q0 121 -79 193.5t-197 72.5q-156 0 -277 -137 q-26 -31 -53 -4l-51 38q-12 11 -11.5 28t11.5 28q6 8 17.5 20.5t50.5 44.5t80.5 56.5t105 44.5t127.5 20q194 0 315 -104.5t121 -280.5q0 -112 -68 -203.5t-151 -130.5v-6q42 -17 82.5 -44t81 -67.5t65.5 -99t25 -125.5q0 -183 -126.5 -298t-342.5 -115q-73 0 -139.5 15.5 t-107 34t-83 50t-56.5 46t-38 40.5q-9 13 -9 27.5z" />
<glyph unicode="4" horiz-adv-x="1282" d="M61 365v57q0 18 13 37l780 971q11 15 19.5 19.5t29.5 4.5h35q15 0 27 -12t12 -29v-958h172q17 0 28 -11t11 -26v-53q0 -16 -11 -27.5t-28 -11.5h-172v-285q0 -17 -12 -29t-27 -12h-68q-16 0 -28.5 12t-12.5 29v285h-727q-17 0 -29 12t-12 27zM238 455h591v735h-4 l-587 -725v-10z" />
<glyph unicode="5" horiz-adv-x="1159" d="M136.5 192.5q-0.5 13.5 17.5 32.5l22.5 22.5t26.5 24.5q31 27 51 -2q19 -23 33 -37.5t44.5 -39.5t61 -39.5t77 -26.5t97.5 -12q97 0 175 52t117.5 130t39.5 164q0 131 -85.5 217t-246.5 86h-321q-29 0 -47.5 23t-18.5 51v557q0 15 12 27t29 12h637q17 0 29 -12t12 -27 v-62q0 -16 -12 -28.5t-29 -12.5h-536v-387h245q235 0 361.5 -117t126.5 -325q0 -131 -62.5 -241.5t-175.5 -176t-252 -65.5q-261 0 -407 174q-21 25 -21.5 38.5z" />
<glyph unicode="6" horiz-adv-x="1183" d="M131 580q0 116 28 221.5t71.5 185.5t106.5 151.5t124 121t132.5 93.5t123.5 69t106 46q33 11 47 -20l23 -51q18 -38 -37 -62q-48 -20 -99 -46t-125 -74.5t-133.5 -102t-112 -130t-73.5 -157.5q6 4 16.5 10.5t44.5 22.5t69.5 28.5t88 23t103.5 10.5q89 0 171 -32.5 t144.5 -90.5t99.5 -145t37 -189q0 -98 -37.5 -187.5t-100 -154t-148 -103t-178.5 -38.5q-125 0 -220.5 46t-154 128.5t-88 189.5t-29.5 236zM279 547q0 -78 19.5 -151.5t59 -136.5t108 -101.5t157.5 -38.5q131 0 223 99t92 235q0 138 -92.5 233.5t-224.5 95.5 q-55 0 -110 -14t-93.5 -34t-69 -40.5t-46.5 -34.5l-15 -14q-8 -41 -8 -98z" />
<glyph unicode="7" horiz-adv-x="1028" d="M68 1333v62q0 15 11.5 27t26.5 12h848q41 0 41 -39q0 -15 -10 -35l-606 -1305q-24 -55 -70 -55h-61q-15 0 -27 12t-12 29q0 23 14 51l572 1196v4h-689q-15 0 -26.5 13t-11.5 28z" />
<glyph unicode="8" horiz-adv-x="1226" d="M139 387q0 65 25.5 125t65.5 103.5t81.5 74t81.5 47.5v8q-82 38 -149.5 126.5t-67.5 199.5q0 173 122.5 278t313.5 105q193 0 316 -105t123 -278q0 -111 -67.5 -199.5t-149.5 -126.5v-8q40 -17 81.5 -47.5t81.5 -74t65 -103.5t25 -125q0 -178 -126 -292.5t-351 -114.5 q-219 0 -345 115t-126 292zM297 373q0 -122 85.5 -195.5t227.5 -73.5q143 0 231.5 73t88.5 196q0 103 -86 185.5t-230 96.5q-146 -14 -231.5 -96t-85.5 -186zM334 1065q0 -104 69 -171.5t211 -80.5q139 13 210 81t71 171q0 117 -80 189.5t-201 72.5q-123 0 -201.5 -72.5 t-78.5 -189.5z" />
<glyph unicode="9" horiz-adv-x="1185" d="M96 971q0 131 63.5 242.5t171 176t232.5 64.5t220.5 -46.5t154 -129t88 -190t29.5 -236.5q0 -91 -17 -175.5t-45.5 -153t-70.5 -132t-86.5 -112.5t-98.5 -94.5t-102 -77.5t-102 -61.5t-93 -47.5t-80 -35q-14 -6 -27.5 1.5t-19.5 21.5l-24 55q-17 42 37 59q34 12 86.5 38 t125 73.5t137 103.5t119.5 134t76 159q-6 -4 -16.5 -10.5t-44 -23t-68.5 -29t-87.5 -23t-102.5 -10.5q-121 0 -224 55t-167 161.5t-64 242.5zM246 979q0 -137 93 -233.5t226 -96.5q55 0 109.5 14t93 34.5t69 40.5t45.5 34l15 14q8 41 8 99q0 62 -11.5 121.5t-38 116 t-65.5 99t-97.5 68t-129.5 25.5q-132 0 -224.5 -99t-92.5 -237z" />
<glyph unicode=":" horiz-adv-x="548" d="M139 115q0 55 39.5 94t95.5 39q57 0 96.5 -38.5t39.5 -94.5t-40 -97t-96 -41q-55 0 -95 41t-40 97zM139 829q0 58 39.5 98t95.5 40q57 0 96.5 -40t39.5 -98q0 -54 -39.5 -93.5t-96.5 -39.5q-55 0 -95 39.5t-40 93.5z" />
<glyph unicode=";" horiz-adv-x="557" d="M141 829q0 58 39.5 98t95.5 40q57 0 95.5 -39.5t38.5 -98.5q0 -55 -39 -94t-95 -39q-55 0 -95 39.5t-40 93.5zM147 100q0 56 30.5 90.5t84.5 34.5q72 0 113 -63.5t41 -161.5q0 -190 -140 -342q-15 -15 -32 -2l-39 35q-17 17 2 37q53 56 84 113.5t31 129.5q0 23 -9 47 q-25 -18 -67 -18q-46 0 -72.5 31t-26.5 69z" />
<glyph unicode="&#x3c;" d="M199 465v10q0 9 6 19.5t14 15.5l696 434q20 12 39 1.5t19 -34.5v-73q0 -25 -23 -39l-534 -328l534 -315q23 -14 23 -39v-74q0 -24 -19 -34.5t-39 1.5l-696 420q-8 5 -14 15.5t-6 19.5z" />
<glyph unicode="=" d="M268 326v63q0 16 11 27.5t28 11.5h613q17 0 27.5 -11.5t10.5 -27.5v-63q0 -16 -10.5 -27.5t-27.5 -11.5h-613q-17 0 -28 11.5t-11 27.5zM268 758v61q0 16 11 27.5t28 11.5h613q17 0 27.5 -11.5t10.5 -27.5v-61q0 -16 -10.5 -27.5t-27.5 -11.5h-613q-17 0 -28 11.5 t-11 27.5z" />
<glyph unicode="&#x3e;" d="M254 43v74q0 28 22 39l535 315l-535 328q-22 15 -22 39v73q0 25 18.5 35t38.5 -2l697 -434q8 -5 14 -15.5t6 -19.5v-10q0 -9 -6 -19.5t-14 -15.5l-697 -420q-20 -12 -38.5 -2t-18.5 35z" />
<glyph unicode="?" horiz-adv-x="956" d="M111 1221q-24 21 0 53q5 7 14 19.5t43 43.5t73.5 54.5t105.5 43t138 19.5q160 0 258.5 -86t98.5 -227q0 -63 -24 -115.5t-60 -85.5t-78 -66t-78 -58t-60 -60t-24 -74v-84q0 -20 -13 -30.5t-30 -10.5h-55q-16 0 -27.5 11t-11.5 28v86q0 51 17 93t44 70.5t59.5 53 t65.5 48.5t60 50.5t44 64.5t17 85q0 76 -53.5 128t-149.5 52q-27 0 -51.5 -3t-46.5 -10t-39.5 -13t-35.5 -18t-29 -19t-26 -21.5t-20.5 -19.5t-19 -19.5t-14.5 -15.5q-26 -26 -53 -2zM328 96q0 49 34 83t82 34q50 0 83.5 -33.5t33.5 -83.5q0 -48 -34 -82t-83 -34 q-47 0 -81.5 34.5t-34.5 81.5z" />
<glyph unicode="@" horiz-adv-x="2021" d="M121 457q0 217 67 401t188 316t298 206t389 74q202 0 366 -65.5t272.5 -181.5t167 -274t58.5 -343q0 -82 -16.5 -160.5t-51.5 -149t-85 -124t-121 -84.5t-154 -31q-99 0 -157.5 44.5t-77.5 115.5h-17q-35 -70 -102 -115t-156 -45q-157 0 -257.5 119t-100.5 313 q0 200 101 314t263 114q46 0 87 -11t67 -27t45.5 -32t27.5 -27l9 -11q2 8 5 22.5t4.5 20t5.5 15.5t7.5 13.5t10 8.5t15.5 6.5t21 1.5h21q15 0 27 -12t12 -27v-436q0 -142 36.5 -196t110.5 -54q124 0 208.5 117t84.5 317q0 127 -29.5 239.5t-90.5 206t-148.5 161t-208 105 t-264.5 37.5q-371 0 -590 -237t-219 -645q0 -281 147 -487t394 -312q22 -10 25 -20t-7 -31l-23 -56q-13 -29 -41 -16q-284 120 -454 359.5t-170 562.5zM762 471q0 -139 69 -217t170 -78q93 0 147.5 55.5t74.5 137.5v290q-3 5 -8.5 12.5t-25 27.5t-42.5 35t-61.5 27.5 t-81.5 12.5q-107 0 -174.5 -80t-67.5 -223z" />
<glyph unicode="A" horiz-adv-x="1361" d="M14 53l623 1379q11 22 35 22h20q24 0 35 -22l619 -1379q4 -9 4 -18q0 -11 -6 -19q-10 -16 -33 -16h-82q-26 0 -35 23l-152 337h-727l-149 -337q-9 -23 -35 -23h-82q-23 0 -33 16q-6 9 -6 19q0 9 4 18zM373 487h614q-50 111 -149.5 336t-149.5 336h-16z" />
<glyph unicode="B" horiz-adv-x="1275" d="M197 39v1356q0 16 11 27.5t28 11.5h452q185 0 300.5 -107t115.5 -270q0 -205 -199 -326v-4q45 -19 85 -46t77.5 -66.5t59.5 -96.5t22 -123q0 -172 -121 -283.5t-311 -111.5h-481q-17 0 -28 11.5t-11 27.5zM346 137h361q122 0 196 73.5t74 186.5q0 108 -80.5 180 t-198.5 72h-352v-512zM350 791h312q123 0 195.5 73t72.5 183q0 111 -71.5 178t-196.5 67h-312v-501z" />
<glyph unicode="C" horiz-adv-x="1445" d="M106 715q0 202 99 372t269 268.5t372 98.5q149 0 267 -48t228 -142q13 -13 13 -32q0 -15 -11 -26l-55 -55q-23 -28 -53 2q-177 154 -391 154q-119 0 -225.5 -48t-182 -128t-120 -188.5t-44.5 -225.5q0 -156 74.5 -291t207 -216t290.5 -81q124 0 211.5 38t179.5 116 q28 23 53 -2l47 -48q11 -10 10 -27t-12 -28q-103 -94 -228 -146t-259 -52q-202 0 -372 97.5t-269 266.5t-99 371z" />
<glyph unicode="D" horiz-adv-x="1519" d="M197 39v1356q0 15 10.5 27t25.5 12h459q145 0 278.5 -57t230 -153t153.5 -228t57 -277q0 -117 -36.5 -227t-103 -198t-155 -154.5t-198 -103t-226.5 -36.5h-459q-15 0 -25.5 12t-10.5 27zM352 141h322q252 0 411.5 162t159.5 416q0 252 -159.5 413.5t-411.5 161.5h-322 v-1153z" />
<glyph unicode="E" horiz-adv-x="1179" d="M197 39v1356q0 16 11 27.5t28 11.5h806q17 0 28 -11.5t11 -27.5v-60q0 -16 -11 -27.5t-28 -11.5h-688v-499h588q15 0 27 -12t12 -27v-60q0 -17 -11.5 -28t-27.5 -11h-588v-522h688q17 0 28 -11.5t11 -27.5v-59q0 -16 -11 -27.5t-28 -11.5h-806q-17 0 -28 11.5t-11 27.5z " />
<glyph unicode="F" horiz-adv-x="1142" d="M197 39v1356q0 16 11 27.5t28 11.5h806q17 0 28 -11.5t11 -27.5v-60q0 -16 -11 -27.5t-28 -11.5h-688v-561h588q15 0 27 -12t12 -27v-59q0 -15 -12 -27t-27 -12h-588v-559q0 -15 -12 -27t-27 -12h-79q-17 0 -28 11.5t-11 27.5z" />
<glyph unicode="G" horiz-adv-x="1503" d="M106 715q0 202 99 372t269 268.5t372 98.5q149 0 267 -48t228 -142q12 -12 13 -29t-11 -29l-57 -57q-14 -15 -24.5 -14t-28.5 16q-81 71 -185 115.5t-204 44.5q-119 0 -225.5 -47.5t-181.5 -127.5t-119 -188t-44 -225q0 -156 74 -292t206 -218t290 -82q100 0 192 21.5 t134 43.5l42 21v287h-235q-17 0 -28 11t-11 26v75q0 17 11 28t28 11h354q15 0 26 -12t11 -27v-469q0 -20 -16 -32q-9 -5 -24.5 -14.5t-67.5 -32.5t-107.5 -41t-139.5 -32.5t-167 -14.5q-202 0 -372 97.5t-269 266.5t-99 371z" />
<glyph unicode="H" horiz-adv-x="1540" d="M197 39v1356q0 15 12 27t27 12h79q17 0 28 -11.5t11 -27.5v-598h832v598q0 16 11 27.5t28 11.5h80q15 0 26.5 -12t11.5 -27v-1356q0 -15 -11.5 -27t-26.5 -12h-80q-17 0 -28 11.5t-11 27.5v620h-832v-620q0 -16 -11 -27.5t-28 -11.5h-79q-15 0 -27 12t-12 27z" />
<glyph unicode="I" horiz-adv-x="552" d="M197 39v1356q0 15 12 27t27 12h81q15 0 27 -12t12 -27v-1356q0 -15 -12 -27t-27 -12h-81q-15 0 -27 12t-12 27z" />
<glyph unicode="J" horiz-adv-x="950" d="M43 131q-9 13 -9 25q0 14 11 26l41 47q14 16 27 18.5t22 -4t21 -20.5q36 -40 92 -73t125 -33q44 0 83.5 15t74.5 46t56 89t21 136v992q0 16 11 27.5t28 11.5h80q17 0 28 -11.5t11 -27.5v-987q0 -206 -110 -317t-283 -111q-207 0 -330 151z" />
<glyph unicode="K" horiz-adv-x="1230" d="M197 49v1335q0 21 14 35.5t35 14.5h59q20 0 34.5 -15t14.5 -35v-591l639 620q17 21 39 21h101q29 0 38.5 -24.5t-14.5 -47.5l-647 -617l678 -682q8 -12 8 -26q0 -12 -10 -24q-12 -13 -33 -13h-104q-10 0 -22 4.5t-15 9.5l-658 674v-639q0 -20 -14.5 -34.5t-34.5 -14.5 h-59q-21 0 -35 14t-14 35z" />
<glyph unicode="L" horiz-adv-x="1011" d="M197 39v1356q0 16 11 27.5t28 11.5h79q15 0 27 -12t12 -27v-1258h590q17 0 28 -11.5t11 -27.5v-59q0 -16 -11 -27.5t-28 -11.5h-708q-17 0 -28 11.5t-11 27.5z" />
<glyph unicode="M" horiz-adv-x="1765" d="M106 49l265 1376q3 12 14 20.5t23 8.5h32q11 0 21.5 -6.5t13.5 -15.5l406 -1129h10l399 1129q3 9 13.5 15.5t21.5 6.5h33q12 0 23 -8.5t14 -20.5l264 -1376q2 -8 2 -14q-1 -11 -7 -21q-10 -14 -32 -14h-82q-12 0 -23 9t-14 20l-182 1054h-8l-377 -1081q-3 -9 -14 -15.5 t-21 -6.5h-37q-10 0 -21 6.5t-14 15.5l-380 1081h-9l-178 -1054q-2 -11 -13.5 -20t-23.5 -9h-82q-23 0 -33 14q-6 9 -6 21q0 6 2 14z" />
<glyph unicode="N" horiz-adv-x="1560" d="M197 39v1378q0 15 12 26t27 11h30q22 0 33 -16l911 -1135h4v1092q0 16 11 27.5t28 11.5h72q15 0 27 -12t12 -27v-1379q0 -15 -12 -25.5t-27 -10.5h-16q-22 0 -33 16l-928 1157h-2v-1114q0 -16 -11 -27.5t-28 -11.5h-71q-15 0 -27 12t-12 27z" />
<glyph unicode="O" horiz-adv-x="1685" d="M106 715q0 151 58 288t156 236t234.5 157t287.5 58t287.5 -58t235 -157t156.5 -236t58 -288t-58 -287.5t-156.5 -234.5t-235 -155.5t-287.5 -57.5q-202 0 -371 97.5t-267 266.5t-98 371zM250 715q0 -160 79.5 -296.5t216 -216t296.5 -79.5t297 79.5t217 216t80 296.5 t-80 297.5t-217 218t-297 80.5t-296.5 -80.5t-216 -218t-79.5 -297.5z" />
<glyph unicode="P" horiz-adv-x="1214" d="M197 39v1356q0 16 11 27.5t28 11.5h452q189 0 324 -133.5t135 -319.5q0 -190 -134.5 -325.5t-322.5 -135.5h-338v-481q0 -15 -12 -27t-27 -12h-77q-17 0 -28 11.5t-11 27.5zM352 672h326q129 0 220 87.5t91 225.5q0 132 -90 212.5t-221 80.5h-326v-606z" />
<glyph unicode="Q" horiz-adv-x="1685" d="M106 715q0 151 58 288t156 236t234.5 157t287.5 58t287.5 -58t235 -157t156.5 -236t58 -288q0 -224 -119.5 -405t-316.5 -269l239 -385q14 -22 3.5 -42t-35.5 -20h-103q-21 0 -33 21l-223 377q-67 -12 -149 -12q-202 0 -371 97.5t-267 266.5t-98 371zM250 715 q0 -160 79.5 -296.5t216 -216t296.5 -79.5t297 79.5t217 216t80 296.5t-80 297.5t-217 218t-297 80.5t-296.5 -80.5t-216 -218t-79.5 -297.5z" />
<glyph unicode="R" horiz-adv-x="1331" d="M197 39v1356q0 16 11 27.5t28 11.5h530q185 0 315.5 -127.5t130.5 -309.5q0 -138 -83.5 -250t-219.5 -167l281 -521q11 -20 0.5 -39.5t-35.5 -19.5h-98q-18 0 -27.5 7.5t-17.5 23.5l-267 530h-391v-522q0 -15 -12 -27t-27 -12h-79q-17 0 -28 11.5t-11 27.5zM358 696h398 q120 0 207.5 87t87.5 212q0 117 -88 203t-207 86h-398v-588z" />
<glyph unicode="S" horiz-adv-x="1089" d="M105 185q0 14 12 30l30 39q16 22 29.5 25.5t36.5 -13.5q18 -15 38.5 -30t71.5 -47t115 -52t127 -20q122 0 198.5 67t76.5 166q0 101 -85 172.5t-274 151.5q-94 40 -152.5 73.5t-110 82t-74.5 112t-23 148.5q0 44 13.5 91t46.5 97t81 88.5t125 63t170 24.5q89 0 176.5 -26 t130.5 -52l43 -26q8 -4 14 -12t8.5 -23.5t-9.5 -34.5l-21 -35q-12 -22 -34 -22q-16 0 -38 12q-72 43 -132 62.5t-140 19.5q-77 0 -135 -22.5t-88.5 -58.5t-45 -72.5t-14.5 -71.5q0 -53 18 -94t57 -74.5t84.5 -58t117.5 -54.5q92 -38 154.5 -68.5t124 -71.5t97 -85t57.5 -102 t22 -128q0 -158 -130.5 -267t-312.5 -109q-84 0 -163.5 21t-136 53.5t-85 53t-47.5 37.5q-13 11 -18 17q-6 7 -6 23z" />
<glyph unicode="T" horiz-adv-x="1052" d="M53 1335v60q0 16 11 27.5t28 11.5h869q17 0 27.5 -11.5t10.5 -27.5v-60q0 -16 -10.5 -27.5t-27.5 -11.5h-357v-1257q0 -15 -12 -27t-27 -12h-78q-15 0 -26.5 12t-11.5 27v1257h-357q-17 0 -28 11.5t-11 27.5z" />
<glyph unicode="U" horiz-adv-x="1449" d="M182 520v875q0 15 12 27t27 12h78q17 0 28 -11.5t11 -27.5v-863q0 -179 104 -293t281 -114q178 0 283.5 112.5t105.5 290.5v867q0 16 11 27.5t28 11.5h78q15 0 27 -12t12 -27v-875q0 -235 -152 -387.5t-393 -152.5q-240 0 -390.5 152.5t-150.5 387.5z" />
<glyph unicode="V" horiz-adv-x="1357" d="M14 1380q-4 9 -4 18q0 10 6 19q10 17 33 17h82q26 0 35 -23l510 -1147h8l510 1147q3 8 13.5 15.5t21.5 7.5h82q23 0 33 -17q6 -9 6 -19q0 -9 -4 -18l-623 -1378q-11 -22 -35 -22h-20q-24 0 -35 22z" />
<glyph unicode="W" horiz-adv-x="1814" d="M59 1384q-2 8 -2 15q1 12 7 21q10 14 32 14h86q12 0 23 -9t14 -20l285 -1061h8l342 1088q7 22 35 22h37q12 0 22 -6.5t13 -15.5l348 -1088h8l278 1061q3 11 14 20t23 9h86q22 0 32 -14q7 -9 7 -21q0 -7 -2 -15l-387 -1376q-3 -12 -14 -20t-23 -8h-33q-23 0 -34 22 l-355 1108h-10l-348 -1108q-11 -22 -35 -22h-33q-12 0 -23 8t-14 20z" />
<glyph unicode="X" horiz-adv-x="1171" d="M70 18q-5 9 -5 18q0 10 7 21l415 678l-399 641q-12 20 -1.5 39t36.5 19h110q24 0 35 -19l316 -543h2l319 543q11 19 35 19h111q26 0 36.5 -19t-2.5 -39l-399 -641l414 -678q6 -12 6 -22q0 -9 -4 -17q-10 -18 -37 -18h-94q-26 0 -35 18l-350 580h-2l-346 -580 q-11 -18 -35 -18h-94q-27 0 -39 18z" />
<glyph unicode="Y" horiz-adv-x="1175" d="M12 1414q11 20 35 20h96q19 0 33 -19l414 -571l414 571q14 19 32 19h97q24 0 34 -20q5 -9 5 -18q0 -11 -7 -22l-499 -682v-653q0 -15 -12 -27t-27 -12h-80q-17 0 -28 11.5t-11 27.5v651l-494 684q-6 11 -6 21t4 19z" />
<glyph unicode="Z" horiz-adv-x="1081" d="M55 39v16q0 17 11 39l733 1190v6h-645q-15 0 -27 12t-12 27v66q0 15 12 27t27 12h829q15 0 27 -12t12 -27v-6q0 -19 -10 -39l-746 -1205v-2h676q17 0 28 -11.5t11 -27.5v-65q0 -16 -11 -27.5t-28 -11.5h-848q-15 0 -27 12t-12 27z" />
<glyph unicode="[" horiz-adv-x="677" d="M164 -449v1844q0 15 12 27t27 12h381q15 0 27 -12t12 -27v-52q0 -17 -11.5 -27.5t-27.5 -10.5h-281v-1663h281q15 0 27 -11t12 -26v-54q0 -15 -12 -26.5t-27 -11.5h-381q-15 0 -27 11.5t-12 26.5z" />
<glyph unicode="\" horiz-adv-x="790" d="M125 1382q-6 22 4.5 37t32.5 15h65q12 0 23 -8t14 -19l402 -1356q6 -21 -5 -36t-32 -15h-68q-11 0 -22.5 8.5t-14.5 18.5z" />
<glyph unicode="]" horiz-adv-x="677" d="M55 -395q0 15 12 26t27 11h281v1663h-281q-16 0 -27.5 10.5t-11.5 27.5v52q0 15 12 27t27 12h381q15 0 27 -12t12 -27v-1844q0 -15 -12 -26.5t-27 -11.5h-381q-15 0 -27 11.5t-12 26.5v54z" />
<glyph unicode="^" horiz-adv-x="1073" d="M88 833.5q-10 18.5 2 38.5l412 570q5 8 15.5 14t19.5 6h10q9 0 19.5 -6t15.5 -14l401 -570q12 -20 2 -38.5t-35 -18.5h-67q-25 0 -39 23l-305 432l-310 -432q-16 -23 -39 -23h-67q-25 0 -35 18.5z" />
<glyph unicode="_" horiz-adv-x="927" d="M119 -59q0 17 11 28t28 11h612q17 0 28 -11t11 -28v-33q0 -15 -11 -26t-28 -11h-612q-17 0 -28 11t-11 26v33z" />
<glyph unicode="`" horiz-adv-x="618" d="M140.5 1299.5q-3.5 13.5 2.5 25.5l37 74q7 12 26 12.5t27 -6.5l308 -172q10 -5 13.5 -16t-1.5 -23l-21 -45q-6 -12 -15.5 -12.5t-31.5 8.5l-329 137q-12 4 -15.5 17.5z" />
<glyph unicode="a" horiz-adv-x="964" d="M86 287q0 139 100.5 226t278.5 87q44 0 95 -8t80 -16l28 -7v17q0 128 -29 184q-31 60 -127 59q-23 0 -47.5 -2t-44.5 -4.5t-42.5 -7.5t-38 -8.5t-35.5 -9t-29 -8.5t-25 -8.5t-19 -6.5q-32 -13 -45 25l-20 55q-6 20 2 31.5t27 19.5q146 62 325 62q90 0 147.5 -22 t89.5 -73.5t44 -121.5t12 -181v-524q0 -19 -13 -32t-32 -13h-39q-29 0 -39 35l-18 63q-121 -121 -293 -121q-127 0 -210 85t-83 225zM236 287q0 -74 47 -123t123 -49q82 0 154 38.5t106 88.5v192q-72 37 -201 37q-102 0 -165.5 -48t-63.5 -136z" />
<glyph unicode="b" horiz-adv-x="1118" d="M160 45v1344q0 18 12.5 31.5t30.5 13.5h61q17 0 31 -14t14 -31v-482q12 7 33.5 17t90 26.5t138.5 16.5q138 0 240.5 -66t154.5 -176.5t52 -249.5q0 -134 -55 -248t-153 -182t-216 -68q-54 0 -104.5 12.5t-84.5 30.5t-60 36.5t-38 31.5l-12 12l-12 -61q-7 -39 -41 -39h-37 q-19 0 -32 13t-13 32zM309 270q4 -6 11.5 -16.5t34 -37.5t55.5 -47t74.5 -37t93.5 -17q83 0 149.5 51.5t101.5 132.5t35 174q0 150 -83.5 253t-231.5 103q-58 0 -118 -14.5t-91 -29.5l-31 -15v-500z" />
<glyph unicode="c" horiz-adv-x="1024" d="M98 471q0 210 137.5 353t342.5 143q207 0 344 -156q11 -14 11 -30q-1 -3 -1 -5q-2 -18 -19 -33l-32 -30q-14 -13 -27.5 -12t-21 7t-19.5 19q-91 102 -238 102q-135 0 -229 -104t-94 -252q0 -150 92.5 -254t224.5 -104q41 0 77.5 9t59.5 20t49 33t37.5 34.5t34.5 38.5 q17 20 36 20q21 0 44 -24l13 -13q20 -20 20 -40q0 -13 -8 -25q-58 -84 -151.5 -137.5t-205.5 -53.5q-210 0 -343.5 139.5t-133.5 354.5z" />
<glyph unicode="d" horiz-adv-x="1120" d="M100 475q0 139 52 249.5t155 176.5t242 66q69 0 134.5 -15t96.5 -30l31 -15v482q0 18 13.5 31.5t31.5 13.5h57q19 0 33.5 -14t14.5 -31v-1344q0 -18 -14.5 -31.5t-33.5 -13.5h-36q-27 0 -41 39l-13 61q-5 -5 -14 -13.5t-39.5 -29.5t-63.5 -37t-82.5 -29.5t-99.5 -13.5 q-117 0 -215 68t-153.5 182t-55.5 248zM254 473q0 -143 82 -250.5t207 -107.5q48 0 93 15.5t75.5 37.5t54 44.5t34.5 37.5l11 16v510q-12 6 -34.5 15t-86 23.5t-121.5 14.5q-146 0 -230.5 -103.5t-84.5 -252.5z" />
<glyph unicode="e" horiz-adv-x="1075" d="M100 473q0 134 54 245.5t160 180t245 68.5q186 0 307 -122t121 -308q0 -26 -4 -58q-1 -18 -14 -29.5t-29 -11.5h-688q3 -123 93.5 -223t215.5 -100q138 0 256 78q27 19 40.5 19t31.5 -26l24 -34q9 -15 11.5 -19.5t4 -13.5t-4.5 -16t-19 -17q-53 -42 -144 -75.5 t-202 -33.5q-139 0 -245 68t-160 180t-54 248zM254 559h582q-3 108 -81 189t-196 81t-204.5 -79t-100.5 -191z" />
<glyph unicode="f" horiz-adv-x="765" d="M49 860v41q0 20 13 32.5t32 12.5h152v150q0 176 80.5 267t234.5 91q157 0 260 -98q11 -11 13 -26v-7q0 -11 -5 -20l-38 -50q-10 -15 -26 -15q-15 0 -34 13q-31 23 -51 34.5t-52.5 21.5t-70.5 10q-160 0 -160 -221v-150h281q19 0 32 -12.5t13 -32.5v-41q0 -19 -13 -32 t-32 -13h-281v-770q0 -19 -13 -32t-32 -13h-61q-19 0 -32 13t-13 32v770h-152q-19 0 -32 13t-13 32z" />
<glyph unicode="g" horiz-adv-x="1120" d="M100 473q0 134 56.5 247t158.5 180t228 67q76 0 146.5 -24.5t102.5 -48.5l33 -24l15 43q18 33 45 33h28q19 0 33.5 -14t14.5 -31v-907q0 -117 -34 -205t-93 -138.5t-131 -75t-156 -24.5q-101 0 -191.5 39.5t-138.5 83.5q-12 10 -15 28t5 28l41 59q11 19 27 19 q15 0 34 -17q119 -100 238 -100q121 0 192.5 73t71.5 230v67l-12 -9t-35 -20.5t-55.5 -25.5t-72 -20t-87.5 -9q-193 0 -321 143.5t-128 352.5zM254 475q0 -154 90 -256t225 -102q58 0 118 19.5t91 39.5l31 19v518q-4 5 -11.5 12.5t-32 27t-52 34.5t-69.5 27.5t-85 12.5 q-136 0 -220.5 -104t-84.5 -248z" />
<glyph unicode="h" horiz-adv-x="1103" d="M160 45v1344q0 18 13.5 31.5t31.5 13.5h61q17 0 31 -14t14 -31v-543q5 5 13.5 13t38 29t62 37t83.5 29t104 13q175 0 258.5 -106t83.5 -316v-500q0 -18 -13.5 -31.5t-31.5 -13.5h-63q-19 0 -32 13t-13 32v500q0 140 -47 212t-152 72q-50 0 -98.5 -14t-82 -33.5 t-59.5 -39.5t-38 -34l-13 -14v-649q0 -18 -13.5 -31.5t-31.5 -13.5h-61q-19 0 -32 13t-13 32z" />
<glyph unicode="i" horiz-adv-x="471" d="M121 1300q0 49 32 82t78 33q48 0 80.5 -33t32.5 -82q0 -45 -33 -77.5t-80 -32.5q-45 0 -77.5 32.5t-32.5 77.5zM160 45v856q0 18 13.5 31.5t31.5 13.5h61q17 0 31 -14t14 -31v-856q0 -18 -13.5 -31.5t-31.5 -13.5h-61q-19 0 -32 13t-13 32z" />
<glyph unicode="j" horiz-adv-x="471" d="M-20 -422q-4 10 -4 18q0 26 32 37q52 19 83 44t50 76t19 130v1018q0 20 13 32.5t32 12.5h61q18 0 31.5 -12.5t13.5 -32.5v-1003q0 -349 -268 -406q-6 -1 -10 -1q-25 0 -33 26zM121 1300q0 49 32.5 82t79.5 33q46 0 78.5 -33t32.5 -82q0 -44 -33 -77t-78 -33 q-47 0 -79.5 32.5t-32.5 77.5z" />
<glyph unicode="k" horiz-adv-x="991" d="M160 45v1344q0 18 13.5 31.5t31.5 13.5h61q17 0 31 -14t14 -31v-801l394 330q31 28 57 28h115q19 0 27 -12t5.5 -25.5t-10.5 -19.5l-436 -363l469 -467q11 -9 11 -23q1 -6 -1 -12q-6 -24 -35 -24h-116q-26 0 -48 18l-432 457v-430q0 -18 -13.5 -31.5t-31.5 -13.5h-61 q-19 0 -32 13t-13 32z" />
<glyph unicode="l" horiz-adv-x="491" d="M170 45v1344q0 18 13.5 31.5t31.5 13.5h61q17 0 31.5 -14t14.5 -31v-1344q0 -18 -14 -31.5t-32 -13.5h-61q-19 0 -32 13t-13 32z" />
<glyph unicode="m" horiz-adv-x="1693" d="M160 45v856q0 18 13.5 31.5t31.5 13.5h33q30 0 36 -28l21 -72q4 5 12 13t35 29t58.5 37t82 29t105.5 13q102 0 166 -36.5t112 -113.5q1 0 16 13.5t34.5 29t52 35.5t66.5 35.5t79 26t90 10.5q80 0 140.5 -21t98 -57t60.5 -90.5t32 -115.5t9 -138v-500q0 -19 -13 -32 t-32 -13h-61q-19 0 -32 13t-13 32v500q0 284 -201 284q-44 0 -83 -9.5t-71.5 -28.5t-51 -32t-43 -35.5t-25.5 -23.5q12 -62 12 -155v-500q0 -19 -13 -32t-32 -13h-62q-18 0 -31.5 13.5t-13.5 31.5v500q0 140 -50.5 212t-162.5 72q-47 0 -90.5 -13.5t-72 -32.5t-50 -38.5 t-31.5 -32.5l-10 -14v-653q0 -18 -13.5 -31.5t-31.5 -13.5h-61q-19 0 -32 13t-13 32z" />
<glyph unicode="n" horiz-adv-x="1103" d="M160 45v856q0 18 13.5 31.5t31.5 13.5h33q30 0 36 -28l21 -72q5 5 14 13t40.5 29t66 37t88 29t108.5 13q100 0 168.5 -30.5t105.5 -90t52.5 -131.5t15.5 -170v-500q0 -18 -13.5 -31.5t-31.5 -13.5h-61q-19 0 -32 13t-13 32v520q0 135 -48.5 199.5t-152.5 64.5 q-50 0 -98 -13.5t-81.5 -32.5t-60 -38.5t-38.5 -32.5l-13 -14v-653q0 -18 -13.5 -31.5t-31.5 -13.5h-61q-19 0 -32 13t-13 32z" />
<glyph unicode="o" horiz-adv-x="1146" d="M98 475q0 131 63.5 244.5t173.5 180.5t238 67t238 -67t174 -180.5t64 -244.5q0 -133 -64 -248t-173.5 -182.5t-238.5 -67.5t-238.5 68t-173 182.5t-63.5 247.5zM248 475q0 -149 93.5 -254.5t231.5 -105.5t231 105.5t93 254.5q0 147 -93 250.5t-231 103.5t-231.5 -104 t-93.5 -250z" />
<glyph unicode="p" horiz-adv-x="1118" d="M160 -442v1343q0 18 13.5 31.5t31.5 13.5h35q17 0 24 -6t15 -25l14 -45q5 4 13.5 10.5t37.5 23t60 29.5t78.5 23.5t95.5 10.5q190 0 315 -144t125 -350q0 -209 -127 -352.5t-320 -143.5q-70 0 -135.5 19.5t-95.5 39.5l-31 19v-497q0 -18 -13.5 -31.5t-31.5 -13.5h-59 q-19 0 -32 13t-13 32zM309 197q4 -3 12.5 -8.5t34 -20t52.5 -25t65.5 -19.5t75.5 -9q136 0 225.5 102.5t89.5 257.5q0 145 -84 249.5t-221 104.5q-43 0 -84 -11.5t-70 -28.5t-51.5 -34t-33.5 -29l-11 -11v-518z" />
<glyph unicode="q" horiz-adv-x="1120" d="M100 473q0 134 56.5 247t158.5 180t228 67q76 0 146.5 -24.5t102.5 -48.5l33 -24l15 43q18 33 45 33h28q19 0 33.5 -14t14.5 -31v-1343q0 -18 -14.5 -31.5t-33.5 -13.5h-57q-19 0 -32 13t-13 32v503l-12 -9t-35 -20.5t-55.5 -25.5t-72 -20t-87.5 -9q-193 0 -321 143.5 t-128 352.5zM254 475q0 -154 90 -256t225 -102q58 0 118.5 19.5t92.5 39.5l31 19v518q-4 5 -11.5 12.5t-32.5 27t-52.5 34.5t-70 27.5t-85.5 12.5q-136 0 -220.5 -104t-84.5 -248z" />
<glyph unicode="r" horiz-adv-x="790" d="M160 45v856q0 18 13.5 31.5t31.5 13.5h33q32 0 41 -33l16 -67q4 5 11.5 13t34.5 29t57.5 37t81.5 29t106 13q32 0 60 -3t58 -10q28 -8 42 -24q8 -10 9 -23q0 -8 -3 -16l-27 -74q-9 -28 -32 -28q-10 0 -23 6q-60 26 -103 26q-51 0 -96 -12.5t-73 -30.5t-49 -35.5 t-29 -30.5l-9 -12v-655q0 -18 -13.5 -31.5t-31.5 -13.5h-61q-19 0 -32 13t-13 32z" />
<glyph unicode="s" horiz-adv-x="831" d="M104 133l29 53q12 22 29 22q12 0 26 -9q111 -84 236 -84q73 0 117.5 31.5t44.5 86.5q0 62 -45 98.5t-166 96.5l-55 27.5t-52 28t-52.5 34t-42 38t-36.5 46t-21.5 53t-9.5 64.5q0 40 15.5 80.5t48 79.5t92 63.5t137.5 24.5q85 0 158.5 -22.5t112.5 -51.5q18 -14 18 -34 q0 -14 -8 -30l-21 -38q-10 -19 -30.5 -23t-34.5 6q-90 55 -195 55q-71 0 -105 -32t-34 -72q0 -58 39 -89.5t141 -78.5q142 -66 192 -102q110 -86 113 -207q0 -115 -89.5 -193t-231.5 -78q-105 0 -184.5 35t-128.5 80q-11 11 -11 24q0 8 4 17z" />
<glyph unicode="t" horiz-adv-x="776" d="M49 860v41q0 20 12.5 32.5t34.5 12.5h125v262q0 18 13.5 30.5t31.5 14.5l64 4h2q16 -1 28 -13q12 -14 13 -32v-266h278q20 0 33.5 -12.5t13.5 -32.5v-41q0 -19 -13.5 -32t-33.5 -13h-278v-565q0 -135 84 -135q91 0 186 61q17 13 29.5 10.5t18 -8.5t11.5 -20l19 -43 q7 -17 7 -29q0 -4 -1 -8q-3 -14 -22 -25q-40 -28 -111 -52t-156 -24q-65 0 -109.5 19.5t-67 57.5t-31.5 82t-9 104v575h-125q-21 0 -34 13t-13 32z" />
<glyph unicode="u" horiz-adv-x="1077" d="M150 391v510q0 18 12.5 31.5t32.5 13.5h61q18 0 31.5 -13.5t13.5 -31.5v-512q0 -141 48 -207.5t151 -66.5q148 0 268 137v649q0 18 12.5 31.5t30.5 13.5h63q17 0 30.5 -14t13.5 -31v-856q0 -19 -13 -32t-31 -13h-32q-33 0 -43 41l-19 59q-116 -123 -293 -123 q-99 0 -166.5 28.5t-104 85.5t-51.5 128.5t-15 171.5z" />
<glyph unicode="v" horiz-adv-x="1003" d="M52 930q10 16 36 16h72q33 0 43 -26l293 -697h4l311 697q10 26 37 26h65q27 0 37 -15q5 -8 4 -18q0 -9 -4 -20l-407 -891q-8 -25 -39 -25h-12q-14 0 -25 7.5t-14 17.5l-400 891q-6 12 -6 21t5 16z" />
<glyph unicode="w" horiz-adv-x="1437" d="M82 893q-3 11 -3 20q0 33 40 33h69q36 0 43 -26l175 -644h4l266 668q8 23 41 23h12q13 0 24.5 -7t14.5 -16l264 -670h4l174 646q3 12 14 19t25 7h72q25 0 33 -14q4 -7 4 -18q0 -9 -4 -21l-258 -891q-3 -11 -14.5 -18t-24.5 -7h-13q-28 0 -40 25l-285 711h-4l-279 -711 q-8 -25 -39 -25h-12q-30 0 -41 25z" />
<glyph unicode="x" horiz-adv-x="974" d="M74 20q-3 7 -4 13q0 13 12 28l315 420l-307 404q-17 23 -7.5 42t38.5 19h88q26 0 37 -18l237 -328h4l246 328q14 18 37 18h88q28 0 38 -19q3 -7 4 -14q0 -13 -11 -28l-307 -400l309 -424q11 -14 11 -27q0 -8 -4 -15q-10 -19 -38 -19h-78q-21 0 -37 20l-258 357h-4 l-256 -359q-14 -18 -37 -18h-77q-29 0 -39 20z" />
<glyph unicode="y" horiz-adv-x="1024" d="M59 895q-4 12 -4 21q0 10 5 16q9 14 36 14h86q31 0 41 -26l269 -752h4l319 752q10 26 41 26h76q28 0 38 -15q5 -7 5 -16q0 -10 -6 -22l-592 -1352q-5 -11 -17 -19.5t-24 -8.5h-74q-28 0 -39 16t0 41l183 432z" />
<glyph unicode="z" horiz-adv-x="847" d="M78 45v4q0 19 12 37l479 725v6h-428q-17 0 -28 13t-11 32v39q0 20 11 32.5t28 12.5h600q43 0 43 -41q0 -13 -8 -24l-483 -746v-6h395q45 0 45 -45v-39q0 -19 -12 -32t-33 -13h-565q-19 0 -32 13t-13 32z" />
<glyph unicode="{" horiz-adv-x="825" d="M63 440v64q0 12 9.5 20.5t21.5 10.5q46 7 94 52t48 107v299q0 107 32.5 190.5t82.5 133.5t119 82t133.5 43.5t133.5 11.5q17 0 29 -9t12 -26v-39q0 -14 -7 -25t-19 -12q-77 -11 -141.5 -36t-118.5 -66t-84.5 -104.5t-30.5 -143.5v-241q0 -58 -12 -104.5t-27 -73.5 t-41 -48.5t-41.5 -29.5t-40.5 -19v-14q25 -11 40.5 -19t41.5 -29.5t41 -48.5t27 -73.5t12 -104.5v-241q0 -80 30.5 -143t84.5 -103.5t118.5 -65.5t141.5 -36q26 -3 26 -35v-41q0 -15 -12.5 -25t-28.5 -10q-69 0 -133.5 11.5t-133.5 43t-119 81t-82.5 133t-32.5 190.5v299 q0 62 -48 107.5t-94 52.5q-12 2 -21.5 12t-9.5 22z" />
<glyph unicode="|" horiz-adv-x="413" d="M162 -451v1969q0 17 11.5 27.5t27.5 10.5h14q15 0 26 -10.5t11 -27.5v-1969q0 -15 -12 -25.5t-27 -10.5h-12q-15 0 -27 10.5t-12 25.5z" />
<glyph unicode="}" horiz-adv-x="825" d="M47 -436q0 32 27 35q77 11 141.5 36t118.5 65.5t84.5 103.5t30.5 143v241q0 59 12 105t27 73t40.5 48.5t41 30t40.5 18.5v14q-25 10 -40.5 18.5t-41 30t-40.5 48.5t-27 73t-12 105v241q0 80 -30.5 143.5t-84.5 104.5t-118.5 66t-141.5 36q-12 1 -19.5 12t-7.5 25v39 q0 17 12 26t29 9q69 0 134 -11.5t133.5 -43.5t119 -82t83 -133.5t32.5 -190.5v-299q0 -62 47.5 -107t93.5 -52q12 -2 21.5 -10.5t9.5 -20.5v-64q0 -12 -9.5 -22t-21.5 -12q-45 -7 -93 -52.5t-48 -107.5v-299q0 -107 -32.5 -190.5t-83 -133t-119.5 -81t-133.5 -43 t-133.5 -11.5q-16 0 -28.5 10t-12.5 25v41z" />
<glyph unicode="~" horiz-adv-x="1155" d="M113 525.5q-1 14.5 8 25.5q4 8 12.5 20.5t36.5 45t57.5 57t75 45t90.5 20.5q44 0 88.5 -16.5t68.5 -31.5t64 -44q100 -69 150 -69q19 0 37 5t34 15.5t28 19.5t25.5 26t19.5 25t17.5 25t12.5 19q11 15 26 17.5t29 -9.5l43 -35q11 -9 12 -23.5t-8 -25.5q-4 -8 -12.5 -20.5 t-36.5 -45t-58 -57t-76.5 -45t-92.5 -20.5q-41 0 -85.5 16.5t-66 30t-61.5 41.5q-1 1 -23.5 17t-31.5 21t-29 16t-37 15t-35 4q-19 0 -36.5 -5t-33.5 -15.5t-27.5 -20t-25 -26t-19.5 -24.5t-17 -25t-13 -19q-11 -15 -26 -17.5t-29 9.5q-7 6 -21.5 17.5t-21.5 17.5 q-11 9 -12 23.5z" />
<glyph unicode="&#xa1;" horiz-adv-x="483" d="M125 850q0 48 34 82.5t83 34.5q47 0 81.5 -35t34.5 -82q0 -49 -34 -83t-82 -34q-50 0 -83.5 33.5t-33.5 83.5zM152 -219l38 575q2 12 14 22.5t25 10.5h25q13 0 25 -10.5t14 -22.5l39 -571v-234q0 -15 -12 -26.5t-27 -11.5h-103q-15 0 -26.5 11.5t-11.5 26.5v230z" />
<glyph unicode="&#xa2;" horiz-adv-x="1099" d="M137 471q0 207 142 351.5t337 144.5q23 0 33 -2l27 98q5 18 21.5 27t33.5 2l17 -5q18 -3 27 -18t3 -35l-24 -88q124 -39 207 -135q13 -17 10.5 -35.5t-19.5 -32.5l-24 -22q-7 -6 -13.5 -9.5t-11 -6t-9.5 -1.5t-7.5 1t-7.5 4t-6.5 5.5t-6.5 7.5t-6 7q-56 59 -141 84 l-189 -688q31 -10 78 -10q41 0 77.5 9t59.5 20t49 33t37.5 34.5t34.5 38.5q35 41 80 -4l12 -13q33 -33 13 -65q-58 -84 -151.5 -137.5t-205.5 -53.5q-49 0 -118 15l-64 -236q-5 -18 -20.5 -27t-32.5 -3l-19 6q-37 13 -28 51l65 246q-119 60 -189.5 177t-70.5 265zM291 473 q0 -90 39 -170.5t106 -130.5l176 657q-88 -1 -162.5 -50.5t-116.5 -131t-42 -174.5z" />
<glyph unicode="&#xa3;" d="M217 641v14q0 15 11 27t26 12h65q-2 9 -20 70t-31.5 131.5t-13.5 138.5q0 190 122 305t306 115q178 0 342 -145q12 -9 13 -25.5t-9 -28.5l-43 -53q-30 -38 -59 -2q-5 5 -13.5 13t-35.5 28.5t-55 36t-69 28.5t-79 13q-120 0 -198.5 -79.5t-78.5 -207.5q0 -70 15.5 -144 t33.5 -129.5t19 -64.5h336q17 0 28 -11.5t11 -27.5v-16q0 -15 -11 -26t-28 -11h-314q13 -80 13 -145q0 -199 -58 -326h512q15 0 26 -11t11 -28v-53q0 -15 -11 -27t-26 -12h-651q-15 0 -27 12t-12 27v37q94 176 94 370q0 70 -14 156h-90q-15 0 -26 12t-11 27z" />
<glyph unicode="&#xa4;" horiz-adv-x="995" d="M166 427q0 17 10 28l84 84q-39 62 -39 141q0 76 39 141l-84 84q-10 11 -10 28t10 28l41 38q11 11 28 11t27 -11l84 -84q65 41 144 41q78 0 139 -38l86 86q11 10 26.5 9t26.5 -12l41 -40q11 -11 11 -27t-11 -27l-84 -84q39 -62 39 -143t-39 -143l84 -84q11 -11 11 -27 t-11 -27l-41 -41q-11 -11 -26.5 -11.5t-26.5 9.5l-86 86q-67 -39 -141 -39q-77 0 -142 41l-84 -84q-10 -10 -27 -10t-28 10l-41 39q-10 11 -10 28zM350 680q0 -62 43 -105t105 -43q61 0 104 43t43 105t-42.5 104.5t-104.5 42.5t-105 -43t-43 -104z" />
<glyph unicode="&#xa5;" d="M37.5 1414q10.5 20 34.5 20h96q19 0 33 -19l413 -571l414 571q14 19 33 19h96q24 0 34.5 -20t-1.5 -40l-500 -682v-102h264q17 0 28 -11.5t11 -27.5v-16q0 -15 -11 -26t-28 -11h-264v-154h264q17 0 28 -11.5t11 -27.5v-16q0 -15 -11 -26t-28 -11h-264v-213q0 -15 -12 -27 t-27 -12h-80q-17 0 -28 11.5t-11 27.5v213h-268q-15 0 -26 12t-11 27v14q0 15 11 27t26 12h268v154h-268q-15 0 -26 12t-11 27v14q0 15 11 27t26 12h268v100l-493 684q-12 20 -1.5 40z" />
<glyph unicode="&#xa6;" horiz-adv-x="430" d="M170 227q0 17 11.5 28t27.5 11h14q15 0 26 -11t11 -28v-678q0 -15 -12 -25.5t-27 -10.5h-12q-15 0 -27 10.5t-12 25.5v678zM170 842v676q0 17 11.5 27.5t27.5 10.5h14q15 0 26 -10.5t11 -27.5v-676q0 -15 -12 -26t-27 -11h-12q-15 0 -27 11t-12 26z" />
<glyph unicode="&#xa7;" horiz-adv-x="1163" d="M134 -309q0 16 13 33l41 51q30 38 62 6q11 -11 35.5 -30t72.5 -50.5t112 -52.5t126 -21q117 0 195.5 52t78.5 151q0 94 -87.5 170t-270.5 154q-175 73 -267.5 169.5t-92.5 229.5q0 49 17 94t41 74t47.5 51.5t40.5 32.5l17 10q-7 4 -18 12.5t-39 36.5t-49.5 60t-39 82.5 t-17.5 103.5q0 44 13.5 89.5t46.5 91.5t81.5 82t124.5 58.5t170 22.5q89 0 176.5 -26t130.5 -52l43 -26q8 -4 14 -12t9 -23t-9 -33l-30 -47q-25 -36 -68 -12l-10 6l-20 12t-27.5 15t-34.5 17t-39.5 16.5t-44 14t-45.5 9.5t-47 4q-79 0 -137 -19.5t-88 -51.5t-44 -65.5 t-14 -68.5q0 -83 70.5 -148t206.5 -120q93 -39 154.5 -68.5t123.5 -68t97 -77.5t57 -89.5t22 -110.5q0 -48 -18 -95t-43.5 -79.5t-51 -58t-43.5 -37.5l-18 -13q7 -5 19 -13.5t42 -38.5t52.5 -63.5t41.5 -86.5t19 -109q0 -157 -124.5 -251.5t-317.5 -94.5q-84 0 -163.5 21 t-136 53t-85.5 52.5t-47 37.5q-25 22 -26 37zM303 559q0 -41 15.5 -75.5t38 -58.5t68 -51.5t83.5 -46t108.5 -51.5t120.5 -59q5 3 14 8t32 23t40.5 39t32 56.5t14.5 74.5q0 45 -21.5 82.5t-70.5 72.5t-109 64.5t-157 69.5q-50 20 -86 38q-5 -2 -13.5 -6.5t-29.5 -20.5 t-37 -35.5t-29.5 -52.5t-13.5 -71z" />
<glyph unicode="&#xa8;" horiz-adv-x="847" d="M156 1294q0 44 30.5 75.5t73.5 31.5q44 0 75.5 -31.5t31.5 -75.5q0 -43 -31.5 -73.5t-75.5 -30.5q-43 0 -73.5 30.5t-30.5 73.5zM551 1294q0 44 30.5 75.5t73.5 31.5q44 0 75.5 -31.5t31.5 -75.5q0 -43 -31.5 -73.5t-75.5 -30.5q-43 0 -73.5 30.5t-30.5 73.5z" />
<glyph unicode="&#xa9;" horiz-adv-x="1730" d="M129 717q0 200 98.5 369.5t267.5 268.5t369 99q150 0 286.5 -58.5t235.5 -157.5t157.5 -235t58.5 -286q0 -120 -37.5 -232t-106 -202.5t-159 -158.5t-203 -105t-232.5 -37q-200 0 -369 98.5t-267.5 267.5t-98.5 369zM252 717q0 -166 82 -307.5t223 -223.5t307 -82 q125 0 238.5 48.5t195.5 131t130.5 195.5t48.5 238t-48.5 238.5t-130.5 195.5t-195.5 130t-238.5 48q-166 0 -307 -81.5t-223 -222.5t-82 -308zM500 713q0 161 112 273t271 112q135 0 235 -78q14 -12 15 -28.5t-11 -30.5l-28 -37q-18 -26 -56 -2q-70 47 -151 47 q-104 0 -174 -73.5t-70 -176.5q0 -106 69.5 -178t174.5 -72q78 0 145 45q39 24 60 -2l32 -39q11 -12 10.5 -28.5t-12.5 -28.5q-102 -86 -239 -86q-158 0 -270.5 112.5t-112.5 270.5z" />
<glyph unicode="&#xaa;" horiz-adv-x="696" d="M100 1026q0 87 63 142t175 55q28 0 58.5 -5.5t47.5 -10.5l17 -5q0 90 -17 124t-75 34q-20 0 -40.5 -2t-35.5 -5t-33 -8t-26.5 -8t-23.5 -8t-17 -6q-10 -3 -19 4.5t-12 18.5l-10 36q-5 21 14 31q7 5 29.5 13.5t74 18t107.5 9.5q30 0 55 -5t43 -11.5t32 -21t23 -25.5 t15 -32.5t9.5 -34.5t5 -40t1.5 -40v-43v-6v-5v-6v-312q0 -12 -7.5 -20t-18.5 -8h-37q-18 0 -25 20l-12 43q-25 -23 -41.5 -36t-55 -28.5t-81.5 -15.5q-79 0 -131 55t-52 144zM193 1028q0 -44 29 -74t73 -30q48 0 93 24t69 53v115q-54 27 -125 27q-59 0 -99 -32.5t-40 -82.5z " />
<glyph unicode="&#xab;" horiz-adv-x="886" d="M106 459q-17 23 0 49l224 303q15 25 37 25h28q26 0 35 -19.5t-4 -44.5l-152 -285l146 -301q12 -25 3.5 -43t-34.5 -18h-39q-19 0 -31 16zM440 459q-17 23 0 49l224 303q15 25 36 25h29q26 0 35 -19.5t-4 -44.5l-152 -285l146 -301q12 -25 3.5 -43t-34.5 -18h-39 q-19 0 -31 16z" />
<glyph unicode="&#xac;" horiz-adv-x="1208" d="M168 682v57q0 15 12 27t27 12h778q16 0 27.5 -12.5t11.5 -26.5v-417q0 -15 -12 -26t-27 -11h-57q-15 0 -27 11t-12 26v321h-682q-15 0 -27 12t-12 27z" />
<glyph unicode="&#xad;" horiz-adv-x="784" d="M139 487v39q0 17 11 28t28 11h428q17 0 28 -11t11 -28v-39q0 -15 -11 -25.5t-28 -10.5h-428q-17 0 -28 10.5t-11 25.5z" />
<glyph unicode="&#xae;" horiz-adv-x="1730" d="M129 717q0 200 98.5 369.5t267.5 268.5t369 99q150 0 286.5 -58.5t235.5 -157.5t157.5 -235t58.5 -286q0 -120 -37.5 -232t-106 -202.5t-159 -158.5t-203 -105t-232.5 -37q-200 0 -369 98.5t-267.5 267.5t-98.5 369zM252 717q0 -166 82 -307.5t223 -223.5t307 -82 q125 0 238.5 48.5t195.5 131t130.5 195.5t48.5 238t-48.5 238.5t-130.5 195.5t-195.5 130t-238.5 48q-166 0 -307 -81.5t-223 -222.5t-82 -308zM608 383v672q0 16 11 27.5t28 11.5h291q103 0 177.5 -60.5t74.5 -169.5q0 -54 -17.5 -97t-45 -68t-53 -38.5t-50.5 -19.5 q20 -40 61 -121t62 -121q10 -19 -1.5 -37t-33.5 -18h-70q-22 0 -36 29l-115 256h-152v-246q0 -16 -11 -27.5t-28 -11.5h-53q-17 0 -28 11.5t-11 27.5zM739 748h199q55 0 89 33.5t34 82.5q0 53 -33 85t-90 32h-199v-233z" />
<glyph unicode="&#xaf;" horiz-adv-x="847" d="M123 1231v43q0 17 11 28t28 11h524q17 0 28 -11t11 -28v-43q0 -15 -11 -26t-28 -11h-524q-17 0 -28 11t-11 26z" />
<glyph unicode="&#xb0;" horiz-adv-x="745" d="M96 1178q0 115 80.5 195.5t196.5 80.5q114 0 195 -80.5t81 -195.5t-81 -196t-195 -81q-115 0 -196 80.5t-81 196.5zM205 1178q0 -66 51 -117t117 -51q63 0 113.5 51t50.5 117q0 63 -50.5 113t-113.5 50q-66 0 -117 -50t-51 -113z" />
<glyph unicode="&#xb1;" d="M184 164v57q0 15 12 27t27 12h781q15 0 25.5 -12t10.5 -27v-57q0 -15 -10.5 -27t-25.5 -12h-781q-15 0 -27 12t-12 27zM186 825v58q0 15 12 27t27 12h322v303q0 15 12 26t27 11h57q15 0 27 -11t12 -26v-303h324q15 0 25.5 -12t10.5 -27v-58q0 -15 -10.5 -27t-25.5 -12 h-324v-239q0 -15 -12 -26t-27 -11h-57q-15 0 -27 11t-12 26v239h-322q-15 0 -27 12t-12 27z" />
<glyph unicode="&#xb2;" horiz-adv-x="585" d="M68 1051v28l260 273q65 71 65 114q0 37 -29.5 67t-87.5 30q-64 0 -126 -62q-12 -13 -25 0l-41 43q-13 13 0 23q3 4 9 10t26 22t41.5 28t55 22t67.5 10q106 0 163.5 -51.5t57.5 -130.5q0 -81 -101 -185l-165 -170h247q19 0 19 -20v-51q0 -19 -19 -19h-397q-20 0 -20 19z " />
<glyph unicode="&#xb3;" horiz-adv-x="591" d="M70 1096q-12 12 2 22l43 41q15 9 26 -2l5 -3q4 -4 9 -7t13 -8.5t16.5 -10t19.5 -9t22 -8t24 -5.5t26 -2q49 0 86 26t37 66q0 42 -37.5 70t-111.5 28h-64q-8 0 -14 5t-6 14v51q0 18 20 18h64q66 0 99.5 26t33.5 65q0 40 -33.5 66t-77.5 26q-65 0 -114 -49q-12 -12 -27 0 l-41 36q-6 4 -6 12t6 13q3 3 9 8.5t25.5 20t40.5 25t52.5 19.5t63.5 9q92 0 153.5 -47t61.5 -123q0 -50 -28.5 -89t-66.5 -54v-5q43 -16 78 -57t35 -96q0 -76 -64.5 -126t-168.5 -50q-134 0 -211 84z" />
<glyph unicode="&#xb4;" horiz-adv-x="618" d="M148.5 1217q3.5 11 13.5 16l307 172q8 7 27 6.5t26 -12.5l37 -74q6 -12 3 -25.5t-15 -17.5l-330 -137q-22 -9 -31.5 -8.5t-15.5 12.5l-20 45q-5 12 -1.5 23z" />
<glyph unicode="&#xb5;" horiz-adv-x="1087" d="M184 -442v1343q0 18 12.5 31.5t32.5 13.5h62q18 0 31.5 -13.5t13.5 -31.5v-500q0 -286 199 -286q50 0 96.5 14t76 34t52.5 40.5t33 34.5l10 14v649q0 18 12.5 31.5t30.5 13.5h63q17 0 30 -14t13 -31v-856q0 -19 -13 -32t-30 -13h-32q-33 0 -43 41l-19 59 q-4 -5 -11.5 -13.5t-35 -29.5t-58.5 -37t-82 -29.5t-106 -13.5q-115 0 -186 41v-460q0 -18 -13.5 -31.5t-31.5 -13.5h-62q-19 0 -32 13t-13 32z" />
<glyph unicode="&#xb6;" horiz-adv-x="1513" d="M88 1008q0 176 115.5 301t281.5 125h906q15 0 27 -12t12 -27v-41q0 -17 -11.5 -28t-27.5 -11h-228v-1764q0 -15 -11 -26.5t-28 -11.5h-43q-15 0 -27 11.5t-12 26.5v1764h-319v-1764q0 -15 -12 -26.5t-27 -11.5h-41q-15 0 -27 11.5t-12 26.5v1027h-90q-175 0 -300.5 125 t-125.5 305z" />
<glyph unicode="&#xb7;" horiz-adv-x="491" d="M129 535q0 49 34.5 82.5t82.5 33.5q50 0 83 -33.5t33 -82.5q0 -48 -33.5 -82.5t-82.5 -34.5q-47 0 -82 35t-35 82z" />
<glyph unicode="&#xb8;" horiz-adv-x="505" d="M80 -391l16 31q14 29 43 10q41 -41 103 -41q52 0 83 25t31 67q0 46 -29.5 69t-78.5 23q-50 0 -90 -20q-10 -4 -20 5.5t-5 20.5l100 207h107l-92 -143q24 8 51 8q72 0 122 -42t50 -128t-65 -139.5t-158 -53.5q-106 0 -168 58q-14 14 0 43z" />
<glyph unicode="&#xb9;" horiz-adv-x="376" d="M51 1501q-3 14 6 23l144 114h57q18 0 18 -18v-569q0 -8 -5.5 -13.5t-12.5 -5.5h-72q-9 0 -14.5 5.5t-5.5 13.5v430l-84 -23q-18 -4 -21 8z" />
<glyph unicode="&#xba;" horiz-adv-x="720" d="M106 1128q0 153 66.5 238.5t187.5 85.5t187.5 -85.5t66.5 -238.5q0 -151 -66.5 -236t-187.5 -85t-187.5 85t-66.5 236zM219 1128q0 -107 36.5 -165t104.5 -58t105 58t37 165t-37.5 166.5t-104.5 59.5t-104 -59.5t-37 -166.5z" />
<glyph unicode="&#xbb;" horiz-adv-x="886" d="M121 816.5q9 19.5 35 19.5h28q22 0 37 -25l223 -303q17 -26 0 -49l-213 -318q-12 -16 -30 -16h-39q-26 0 -34.5 18t3.5 43l145 301l-151 285q-13 25 -4 44.5zM454.5 816.5q8.5 19.5 34.5 19.5h29q22 0 37 -25l223 -303q17 -26 0 -49l-213 -318q-12 -16 -30 -16h-39 q-26 0 -34.5 18t3.5 43l145 301l-151 285q-13 25 -4.5 44.5z" />
<glyph unicode="&#xbc;" horiz-adv-x="1298" d="M96 1296q-3 14 6 23l144 115h57q19 0 19 -19v-569q0 -8 -6 -13.5t-13 -5.5h-72q-9 0 -14.5 5.5t-5.5 13.5v430l-84 -23q-18 -4 -21 9zM203 55l702 1358q12 21 35 21h33q23 0 34.5 -18t0.5 -38l-707 -1358q-10 -20 -35 -20h-28q-23 0 -34 17.5t-1 37.5zM668 139v66 l346 395q6 6 16 6h49q8 0 14.5 -5.5t6.5 -12.5v-379h84q7 0 12.5 -5t5.5 -11v-54q0 -6 -5.5 -11t-12.5 -5h-84v-105q0 -7 -6.5 -12.5t-14.5 -5.5h-65q-8 0 -14.5 5.5t-6.5 12.5v103h-307q-8 0 -13 5.5t-5 12.5zM780 211h217v242z" />
<glyph unicode="&#xbd;" horiz-adv-x="1277" d="M96 1296q-3 14 6 23l144 115h57q19 0 19 -19v-569q0 -8 -6 -13.5t-13 -5.5h-72q-9 0 -14.5 5.5t-5.5 13.5v430l-84 -23q-18 -4 -21 9zM203 55l702 1358q12 21 35 21h33q23 0 34.5 -18t0.5 -38l-707 -1358q-10 -20 -35 -20h-28q-23 0 -34 17.5t-1 37.5zM729 18v29l260 272 q66 72 66 115q0 37 -29.5 66.5t-87.5 29.5q-66 0 -127 -61q-13 -13 -25 0l-41 43q-13 13 0 23q3 4 9 10t26 22t41.5 28t55 22t67.5 10q106 0 163.5 -52t57.5 -131q0 -81 -100 -184l-166 -170h248q18 0 18 -20v-52q0 -18 -18 -18h-397q-21 0 -21 18z" />
<glyph unicode="&#xbe;" horiz-adv-x="1388" d="M109 891q-12 12 2 22l43 41q15 9 26 -2l4 -4l10 -6t13 -8.5t16.5 -10t19.5 -9t22 -8t24 -5.5t26 -2q49 0 86 26t37 66q0 42 -38 70.5t-111 28.5h-64q-20 0 -20 18v51q0 19 20 19h64q66 0 99.5 25.5t33.5 64.5q0 40 -33.5 66t-77.5 26q-65 0 -114 -49q-12 -12 -27 0 l-41 37q-6 4 -6 12t6 12q3 3 9 8.5t25.5 20t40 25t52 19.5t63.5 9q92 0 154 -47t62 -123q0 -49 -30 -89.5t-69 -55.5v-4q44 -16 80.5 -56.5t36.5 -95.5q0 -76 -65 -126t-169 -50q-133 0 -210 84zM293 55l702 1358q12 21 35 21h33q23 0 34.5 -18t0.5 -38l-707 -1358 q-10 -20 -35 -20h-28q-23 0 -34 17.5t-1 37.5zM758 139v66l346 395q6 6 16 6h49q8 0 14.5 -5.5t6.5 -12.5v-379h84q7 0 12.5 -5t5.5 -11v-54q0 -6 -5.5 -11t-12.5 -5h-84v-105q0 -7 -6.5 -12.5t-14.5 -5.5h-65q-8 0 -14.5 5.5t-6.5 12.5v103h-307q-8 0 -13 5.5t-5 12.5z M870 211h217v242z" />
<glyph unicode="&#xbf;" horiz-adv-x="933" d="M115 -197q0 54 18 100.5t46.5 79t62.5 60.5t68.5 52.5t63 48.5t46.5 54t18 64v84q0 20 13 30.5t30 10.5h56q15 0 26.5 -11t11.5 -28v-86q0 -51 -17 -93t-44 -70.5t-59.5 -53t-65.5 -48.5t-60 -50.5t-44 -64.5t-17 -85q0 -76 53.5 -128t149.5 -52q27 0 51.5 3t46.5 10 t39.5 13t36 18.5t29 18.5t26.5 21t20.5 19.5l19.5 19.5l14 16q26 26 53 2l39 -34q24 -21 0 -54q-5 -7 -14.5 -19.5t-43.5 -43.5t-73.5 -54.5t-105.5 -43t-138 -19.5q-160 0 -258 86t-98 227zM395 850q0 48 34 82.5t83 34.5q47 0 82 -35t35 -82q0 -49 -34.5 -83t-82.5 -34 q-50 0 -83.5 33.5t-33.5 83.5z" />
<glyph unicode="&#xc0;" horiz-adv-x="1361" d="M14 53l623 1379q11 22 35 22h20q24 0 35 -22l619 -1379q9 -20 -1.5 -36.5t-33.5 -16.5h-82q-26 0 -35 23l-152 337h-727l-149 -337q-9 -23 -35 -23h-82q-23 0 -33.5 16.5t-1.5 36.5zM373 487h614q-50 111 -149.5 336t-149.5 336h-16zM474 1754.5q-3 13.5 3 25.5l37 73 q7 12 26 13t27 -6l307 -172q10 -5 14 -16t-1 -23l-21 -45q-6 -12 -15.5 -13t-31.5 8l-330 138q-12 4 -15 17.5z" />
<glyph unicode="&#xc1;" horiz-adv-x="1361" d="M14 53l623 1379q11 22 35 22h20q24 0 35 -22l619 -1379q9 -20 -1.5 -36.5t-33.5 -16.5h-82q-26 0 -35 23l-152 337h-727l-149 -337q-9 -23 -35 -23h-82q-23 0 -33.5 16.5t-1.5 36.5zM373 487h614q-50 111 -149.5 336t-149.5 336h-16zM473.5 1672q3.5 11 13.5 16l308 172 q8 7 27 6t26 -13l37 -73q6 -12 2.5 -25.5t-15.5 -17.5l-329 -138q-22 -9 -31.5 -8t-15.5 13l-21 45q-5 12 -1.5 23z" />
<glyph unicode="&#xc2;" horiz-adv-x="1361" d="M14 53l623 1379q11 22 35 22h20q24 0 35 -22l619 -1379q9 -20 -1.5 -36.5t-33.5 -16.5h-82q-26 0 -35 23l-152 337h-727l-149 -337q-9 -23 -35 -23h-82q-23 0 -33.5 16.5t-1.5 36.5zM373 487h614q-50 111 -149.5 336t-149.5 336h-16zM395.5 1645.5q4.5 10.5 14.5 17.5 l245 192q12 9 27 9t27 -9l245 -192q10 -7 14.5 -17.5t-1.5 -21.5q-3 -4 -10.5 -16.5t-12.5 -19t-13.5 -13t-18 -5.5t-21.5 9l-209 143l-209 -139q-30 -19 -47 4l-29 37q-6 11 -1.5 21.5z" />
<glyph unicode="&#xc3;" horiz-adv-x="1361" d="M14 53l623 1379q11 22 35 22h20q24 0 35 -22l619 -1379q9 -20 -1.5 -36.5t-33.5 -16.5h-82q-26 0 -35 23l-152 337h-727l-149 -337q-9 -23 -35 -23h-82q-23 0 -33.5 16.5t-1.5 36.5zM373 487h614q-50 111 -149.5 336t-149.5 336h-16zM381 1692q2 4 11 25t16 36.5t23 38 t33.5 37t45 25t59.5 10.5q34 0 64 -15.5t51 -38t39 -45t36.5 -38t35.5 -15.5q62 0 92 105q10 32 47 16l33 -16q6 -3 9.5 -7.5t4.5 -8.5t0.5 -10.5t-1 -9.5t-3 -10t-2.5 -8q-56 -166 -182 -166q-38 0 -74.5 24t-59.5 53t-48.5 53t-43.5 24q-19 0 -34.5 -9t-26.5 -26.5 t-16.5 -31.5t-12.5 -35q-5 -17 -17.5 -23.5t-33.5 2.5l-37 19q-22 11 -8 45z" />
<glyph unicode="&#xc4;" horiz-adv-x="1361" d="M14 53l623 1379q11 22 35 22h20q24 0 35 -22l619 -1379q9 -20 -1.5 -36.5t-33.5 -16.5h-82q-26 0 -35 23l-152 337h-727l-149 -337q-9 -23 -35 -23h-82q-23 0 -33.5 16.5t-1.5 36.5zM358 1718q0 44 31 75.5t74 31.5q44 0 75 -31.5t31 -75.5q0 -43 -31 -73.5t-75 -30.5 q-43 0 -74 30.5t-31 73.5zM373 487h614q-50 111 -149.5 336t-149.5 336h-16zM791 1718q0 44 30.5 75.5t73.5 31.5q44 0 75 -31.5t31 -75.5q0 -43 -31 -73.5t-75 -30.5q-43 0 -73.5 30.5t-30.5 73.5z" />
<glyph unicode="&#xc5;" horiz-adv-x="1361" d="M14 53l623 1379q11 22 35 22h20q24 0 35 -22l619 -1379q9 -20 -1.5 -36.5t-33.5 -16.5h-82q-26 0 -35 23l-152 337h-727l-149 -337q-9 -23 -35 -23h-82q-23 0 -33.5 16.5t-1.5 36.5zM373 487h614q-50 111 -149.5 336t-149.5 336h-16zM457 1776q0 94 64.5 158.5 t158.5 64.5q93 0 158 -65t65 -158q0 -94 -65.5 -159t-157.5 -65q-94 0 -158.5 65t-64.5 159zM555 1776q0 -50 37.5 -87.5t87.5 -37.5q49 0 85 37.5t36 87.5q0 49 -35.5 84.5t-85.5 35.5t-87.5 -35.5t-37.5 -84.5z" />
<glyph unicode="&#xc6;" horiz-adv-x="1820" d="M-13.5 16.5q-6.5 16.5 5.5 36.5l821 1317q16 25 25.5 36t27.5 19.5t43 8.5h774q17 0 28 -11.5t11 -27.5v-60q0 -16 -11 -27.5t-28 -11.5h-700v-499h600q15 0 27 -12t12 -27v-60q0 -17 -11.5 -28t-27.5 -11h-600v-522h700q17 0 28 -11.5t11 -27.5v-59q0 -16 -11 -27.5 t-28 -11.5h-806q-17 0 -28 11.5t-11 27.5v321h-486l-213 -337q-18 -23 -39 -23h-84q-23 0 -29.5 16.5zM426 487h412v672z" />
<glyph unicode="&#xc7;" horiz-adv-x="1445" d="M106 715q0 202 99 372t269 268.5t372 98.5q149 0 267 -48t228 -142q12 -12 13 -29t-11 -29l-55 -55q-23 -28 -53 2q-81 71 -185 112.5t-206 41.5q-119 0 -225.5 -48t-182 -128t-120 -188.5t-44.5 -225.5q0 -156 74.5 -291t207 -216t290.5 -81q64 0 119 11.5t104.5 36 t83.5 46.5t84 60q26 21 49 6l62 -56q11 -10 9.5 -27t-12.5 -28q-197 -192 -479 -198l-73 -117q24 8 51 8q73 0 125.5 -42t52.5 -128q0 -85 -67.5 -139t-161.5 -54q-106 0 -168 58q-14 14 0 43l16 31q15 29 43 10q41 -41 102 -41q53 0 84 21.5t31 62.5q0 84 -108 84 q-57 0 -99 -21q-10 -4 -19.5 6t-4.5 21l96 201q-137 14 -259 77t-209.5 159t-138.5 225t-51 270z" />
<glyph unicode="&#xc8;" horiz-adv-x="1179" d="M197 39v1356q0 16 11 27.5t28 11.5h806q17 0 28 -11.5t11 -27.5v-60q0 -16 -11 -27.5t-28 -11.5h-688v-499h588q15 0 27 -12t12 -27v-60q0 -17 -11.5 -28t-27.5 -11h-588v-522h688q17 0 28 -11.5t11 -27.5v-59q0 -16 -11 -27.5t-28 -11.5h-806q-17 0 -28 11.5t-11 27.5z M450 1754.5q-3 13.5 3 25.5l36 73q7 12 26.5 13t27.5 -6l307 -172q10 -5 13.5 -16t-1.5 -23l-20 -45q-6 -12 -15.5 -13t-31.5 8l-330 138q-12 4 -15 17.5z" />
<glyph unicode="&#xc9;" horiz-adv-x="1179" d="M197 39v1356q0 16 11 27.5t28 11.5h806q17 0 28 -11.5t11 -27.5v-60q0 -16 -11 -27.5t-28 -11.5h-688v-499h588q15 0 27 -12t12 -27v-60q0 -17 -11.5 -28t-27.5 -11h-588v-522h688q17 0 28 -11.5t11 -27.5v-59q0 -16 -11 -27.5t-28 -11.5h-806q-17 0 -28 11.5t-11 27.5z M451.5 1672q3.5 11 13.5 16l307 172q8 7 27 6t26 -13l37 -73q6 -12 3 -25.5t-15 -17.5l-330 -138q-22 -9 -31.5 -8t-15.5 13l-20 45q-5 12 -1.5 23z" />
<glyph unicode="&#xca;" horiz-adv-x="1179" d="M197 39v1356q0 16 11 27.5t28 11.5h806q17 0 28 -11.5t11 -27.5v-60q0 -16 -11 -27.5t-28 -11.5h-688v-499h588q15 0 27 -12t12 -27v-60q0 -17 -11.5 -28t-27.5 -11h-588v-522h688q17 0 28 -11.5t11 -27.5v-59q0 -16 -11 -27.5t-28 -11.5h-806q-17 0 -28 11.5t-11 27.5z M350.5 1645.5q4.5 10.5 14.5 17.5l245 192q12 9 27 9t27 -9l245 -192q10 -7 14.5 -17.5t-1.5 -21.5q-3 -4 -10.5 -16.5t-12.5 -19t-13.5 -13t-18 -5.5t-21.5 9l-209 143l-209 -139q-30 -19 -47 4l-29 37q-6 11 -1.5 21.5z" />
<glyph unicode="&#xcb;" horiz-adv-x="1179" d="M197 39v1356q0 16 11 27.5t28 11.5h806q17 0 28 -11.5t11 -27.5v-60q0 -16 -11 -27.5t-28 -11.5h-688v-499h588q15 0 27 -12t12 -27v-60q0 -17 -11.5 -28t-27.5 -11h-588v-522h688q17 0 28 -11.5t11 -27.5v-59q0 -16 -11 -27.5t-28 -11.5h-806q-17 0 -28 11.5t-11 27.5z M317 1718q0 44 31 75.5t74 31.5q44 0 75 -31.5t31 -75.5q0 -43 -31 -73.5t-75 -30.5q-43 0 -74 30.5t-31 73.5zM750 1718q0 44 30.5 75.5t73.5 31.5q44 0 75.5 -31.5t31.5 -75.5q0 -43 -31.5 -73.5t-75.5 -30.5q-43 0 -73.5 30.5t-30.5 73.5z" />
<glyph unicode="&#xcc;" horiz-adv-x="552" d="M69 1754.5q-3 13.5 3 25.5l37 73q7 12 26 13t27 -6l307 -172q10 -5 13.5 -16t-1.5 -23l-20 -45q-6 -12 -15.5 -13t-31.5 8l-330 138q-12 4 -15 17.5zM197 39v1356q0 15 12 27t27 12h81q15 0 27 -12t12 -27v-1356q0 -15 -12 -27t-27 -12h-81q-15 0 -27 12t-12 27z" />
<glyph unicode="&#xcd;" horiz-adv-x="552" d="M70.5 1672q3.5 11 13.5 16l307 172q8 7 27 6t26 -13l37 -73q6 -12 3 -25.5t-15 -17.5l-330 -138q-22 -9 -31.5 -8t-15.5 13l-20 45q-5 12 -1.5 23zM197 39v1356q0 15 12 27t27 12h81q15 0 27 -12t12 -27v-1356q0 -15 -12 -27t-27 -12h-81q-15 0 -27 12t-12 27z" />
<glyph unicode="&#xce;" horiz-adv-x="552" d="M-10 1645.5q4 10.5 14 17.5l246 192q12 9 26 9q15 0 27 -9l246 -192q10 -7 14 -17.5t-2 -21.5q-3 -4 -10.5 -16.5t-12.5 -19t-13.5 -13t-18 -5.5t-21.5 9l-209 143l-208 -139q-31 -20 -48 4l-28 37q-6 11 -2 21.5zM197 39v1356q0 15 12 27t27 12h81q15 0 27 -12t12 -27 v-1356q0 -15 -12 -27t-27 -12h-81q-15 0 -27 12t-12 27z" />
<glyph unicode="&#xcf;" horiz-adv-x="552" d="M-43 1718q0 44 30.5 75.5t73.5 31.5q44 0 75.5 -31.5t31.5 -75.5q0 -43 -31.5 -73.5t-75.5 -30.5q-43 0 -73.5 30.5t-30.5 73.5zM197 39v1356q0 15 12 27t27 12h81q15 0 27 -12t12 -27v-1356q0 -15 -12 -27t-27 -12h-81q-15 0 -27 12t-12 27zM389 1718q0 44 31 75.5 t74 31.5q44 0 75 -31.5t31 -75.5q0 -43 -31 -73.5t-75 -30.5q-43 0 -74 30.5t-31 73.5z" />
<glyph unicode="&#xd0;" horiz-adv-x="1519" d="M100 702v15q0 15 11 27t26 12h60v639q0 15 10.5 27t25.5 12h459q145 0 278.5 -57t230 -153t153.5 -228t57 -277q0 -117 -36.5 -227t-103 -198t-155 -154.5t-198 -103t-226.5 -36.5h-459q-15 0 -25.5 12t-10.5 27v625h-60q-15 0 -26 11.5t-11 26.5zM352 141h307 q166 0 298.5 73.5t207 205.5t74.5 299q0 251 -163.5 413t-416.5 162h-307v-538h432q17 0 28 -11.5t11 -27.5v-17q0 -15 -11 -25.5t-28 -10.5h-432v-523z" />
<glyph unicode="&#xd1;" horiz-adv-x="1560" d="M197 39v1378q0 15 12 26t27 11h30q22 0 33 -16l911 -1135h4v1092q0 16 11 27.5t28 11.5h72q15 0 27 -12t12 -27v-1379q0 -15 -12 -25.5t-27 -10.5h-16q-22 0 -33 16l-928 1157h-2v-1114q0 -16 -11 -27.5t-28 -11.5h-71q-15 0 -27 12t-12 27zM504 1692q2 4 11 25t16 36.5 t23 38t33.5 37t45 25t59.5 10.5q34 0 64 -15.5t51 -38t39 -45t36.5 -38t35.5 -15.5q62 0 92 105q10 32 47 16l33 -16q6 -3 9.5 -7.5t4.5 -8.5t0.5 -10.5t-1 -9.5t-3 -10t-2.5 -8q-9 -27 -21.5 -51.5t-34 -52.5t-54.5 -45t-73 -17q-38 0 -74.5 24t-59 53t-48 53t-43.5 24 q-19 0 -34.5 -9t-26.5 -26.5t-16.5 -31.5t-12.5 -35q-5 -17 -17.5 -23.5t-33.5 2.5l-37 19q-22 11 -8 45z" />
<glyph unicode="&#xd2;" horiz-adv-x="1685" d="M106 715q0 151 58 288t156 236t234.5 157t287.5 58t287.5 -58t235 -157t156.5 -236t58 -288t-58 -287.5t-156.5 -234.5t-235 -155.5t-287.5 -57.5q-202 0 -371 97.5t-267 266.5t-98 371zM250 715q0 -160 79.5 -296.5t216 -216t296.5 -79.5t297 79.5t217 216t80 296.5 t-80 297.5t-217 218t-297 80.5t-296.5 -80.5t-216 -218t-79.5 -297.5zM654.5 1754.5q-3.5 13.5 2.5 25.5l37 73q7 12 26.5 13t27.5 -6l307 -172q10 -5 13.5 -16t-1.5 -23l-20 -45q-10 -21 -48 -5l-329 138q-12 4 -15.5 17.5z" />
<glyph unicode="&#xd3;" horiz-adv-x="1685" d="M106 715q0 151 58 288t156 236t234.5 157t287.5 58t287.5 -58t235 -157t156.5 -236t58 -288t-58 -287.5t-156.5 -234.5t-235 -155.5t-287.5 -57.5q-202 0 -371 97.5t-267 266.5t-98 371zM250 715q0 -160 79.5 -296.5t216 -216t296.5 -79.5t297 79.5t217 216t80 296.5 t-80 297.5t-217 218t-297 80.5t-296.5 -80.5t-216 -218t-79.5 -297.5zM656 1672q4 11 14 16l307 172q8 7 27 6t26 -13l37 -73q6 -12 3 -25.5t-15 -17.5l-330 -138q-22 -9 -31.5 -8t-15.5 13l-21 45q-5 12 -1 23z" />
<glyph unicode="&#xd4;" horiz-adv-x="1685" d="M106 715q0 151 58 288t156 236t234.5 157t287.5 58t287.5 -58t235 -157t156.5 -236t58 -288t-58 -287.5t-156.5 -234.5t-235 -155.5t-287.5 -57.5q-202 0 -371 97.5t-267 266.5t-98 371zM250 715q0 -160 79.5 -296.5t216 -216t296.5 -79.5t297 79.5t217 216t80 296.5 t-80 297.5t-217 218t-297 80.5t-296.5 -80.5t-216 -218t-79.5 -297.5zM555 1645.5q4 10.5 14 17.5l246 192q12 9 27 9q14 0 26 -9l246 -192q10 -7 14 -17.5t-2 -21.5q-3 -5 -10.5 -17t-12.5 -18.5t-13 -13t-17.5 -5.5t-21.5 9l-209 143l-209 -139q-30 -19 -47 4l-29 37 q-6 11 -2 21.5z" />
<glyph unicode="&#xd5;" horiz-adv-x="1685" d="M106 715q0 151 58 288t156 236t234.5 157t287.5 58t287.5 -58t235 -157t156.5 -236t58 -288t-58 -287.5t-156.5 -234.5t-235 -155.5t-287.5 -57.5q-202 0 -371 97.5t-267 266.5t-98 371zM250 715q0 -160 79.5 -296.5t216 -216t296.5 -79.5t297 79.5t217 216t80 296.5 t-80 297.5t-217 218t-297 80.5t-296.5 -80.5t-216 -218t-79.5 -297.5zM541 1692q2 4 11 25t16 36.5t23 38t33.5 37t45 25t59.5 10.5q42 0 78 -24t57 -52t45.5 -52t44.5 -24q63 0 93 105q10 32 47 16l32 -16q5 -2 8.5 -5.5t5 -8t2 -8t-0.5 -9.5t-1.5 -8.5t-2.5 -8t-2 -6.5 q-9 -27 -21.5 -51.5t-34 -52.5t-54.5 -45t-73 -17q-38 0 -74.5 24t-59 53t-48 53t-43.5 24q-19 0 -34.5 -9t-26.5 -26.5t-16.5 -31.5t-12.5 -35q-5 -17 -17.5 -23.5t-33.5 2.5l-37 19q-22 11 -8 45z" />
<glyph unicode="&#xd6;" horiz-adv-x="1685" d="M106 715q0 151 58 288t156 236t234.5 157t287.5 58t287.5 -58t235 -157t156.5 -236t58 -288t-58 -287.5t-156.5 -234.5t-235 -155.5t-287.5 -57.5q-202 0 -371 97.5t-267 266.5t-98 371zM250 715q0 -160 79.5 -296.5t216 -216t296.5 -79.5t297 79.5t217 216t80 296.5 t-80 297.5t-217 218t-297 80.5t-296.5 -80.5t-216 -218t-79.5 -297.5zM522 1718q0 44 31 75.5t74 31.5q44 0 75 -31.5t31 -75.5q0 -43 -31 -73.5t-75 -30.5q-43 0 -74 30.5t-31 73.5zM954 1718q0 44 31 75.5t74 31.5q44 0 75 -31.5t31 -75.5q0 -43 -31 -73.5t-75 -30.5 q-43 0 -74 30.5t-31 73.5z" />
<glyph unicode="&#xd7;" d="M280 456q0 16 11 27l227 228l-227 227q-11 10 -11 27t11 28l39 41q10 10 27 10t28 -10l227 -227l230 229q11 10 26.5 9.5t26.5 -11.5l41 -41q11 -11 11.5 -26.5t-9.5 -26.5l-229 -229l229 -228q10 -12 9.5 -28t-11.5 -27l-41 -39q-11 -11 -26.5 -11.5t-26.5 9.5l-230 229 l-227 -227q-11 -11 -27 -11t-26 11l-41 41q-11 10 -11 26z" />
<glyph unicode="&#xd8;" horiz-adv-x="1685" d="M106 715q0 151 58 288t156 236t234.5 157t287.5 58q138 0 264.5 -49t226.5 -137l129 129q10 11 27 11t27 -11l10 -11q10 -10 10 -26t-10 -27l-129 -129q86 -100 134 -226t48 -263q0 -151 -58 -287.5t-156.5 -234.5t-235 -155.5t-287.5 -57.5q-139 0 -264.5 47t-223.5 133 l-125 -125q-11 -10 -26.5 -9.5t-26.5 11.5l-8 8q-11 11 -11.5 26.5t9.5 26.5l125 125q-185 211 -185 492zM250 715q0 -219 145 -387l836 837q-169 146 -389 146q-160 0 -296.5 -80.5t-216 -218t-79.5 -297.5zM459 264q78 -67 177 -104t206 -37q160 0 297 79.5t217 216 t80 296.5q0 108 -38 208t-106 177z" />
<glyph unicode="&#xd9;" horiz-adv-x="1449" d="M182 520v875q0 15 12 27t27 12h78q17 0 28 -11.5t11 -27.5v-863q0 -179 104 -293t281 -114q178 0 283.5 112.5t105.5 290.5v867q0 16 11 27.5t28 11.5h78q15 0 27 -12t12 -27v-875q0 -235 -152 -387.5t-393 -152.5q-240 0 -390.5 152.5t-150.5 387.5zM513 1754.5 q-3 13.5 3 25.5l37 73q7 12 26 13t27 -6l307 -172q10 -5 14 -16t-1 -23l-21 -45q-6 -12 -15.5 -13t-31.5 8l-330 138q-12 4 -15 17.5z" />
<glyph unicode="&#xda;" horiz-adv-x="1449" d="M182 520v875q0 15 12 27t27 12h78q17 0 28 -11.5t11 -27.5v-863q0 -179 104 -293t281 -114q178 0 283.5 112.5t105.5 290.5v867q0 16 11 27.5t28 11.5h78q15 0 27 -12t12 -27v-875q0 -235 -152 -387.5t-393 -152.5q-240 0 -390.5 152.5t-150.5 387.5zM514.5 1672 q3.5 11 13.5 16l308 172q8 7 27 6t26 -13l37 -73q6 -12 2.5 -25.5t-15.5 -17.5l-329 -138q-22 -9 -31.5 -8t-15.5 13l-21 45q-5 12 -1.5 23z" />
<glyph unicode="&#xdb;" horiz-adv-x="1449" d="M182 520v875q0 15 12 27t27 12h78q17 0 28 -11.5t11 -27.5v-863q0 -179 104 -293t281 -114q178 0 283.5 112.5t105.5 290.5v867q0 16 11 27.5t28 11.5h78q15 0 27 -12t12 -27v-875q0 -235 -152 -387.5t-393 -152.5q-240 0 -390.5 152.5t-150.5 387.5zM428 1645.5 q4 10.5 14 17.5l246 192q12 9 27 9q14 0 26 -9l246 -192q10 -7 14 -17.5t-2 -21.5q-3 -5 -10.5 -17t-12.5 -18.5t-13 -13t-17.5 -5.5t-21.5 9l-209 143l-209 -139q-30 -19 -47 4l-29 37q-6 11 -2 21.5z" />
<glyph unicode="&#xdc;" horiz-adv-x="1449" d="M182 520v875q0 15 12 27t27 12h78q17 0 28 -11.5t11 -27.5v-863q0 -179 104 -293t281 -114q178 0 283.5 112.5t105.5 290.5v867q0 16 11 27.5t28 11.5h78q15 0 27 -12t12 -27v-875q0 -235 -152 -387.5t-393 -152.5q-240 0 -390.5 152.5t-150.5 387.5zM401 1718 q0 44 31 75.5t74 31.5q44 0 75 -31.5t31 -75.5q0 -43 -31 -73.5t-75 -30.5q-43 0 -74 30.5t-31 73.5zM834 1718q0 44 30.5 75.5t73.5 31.5q44 0 75 -31.5t31 -75.5q0 -43 -31 -73.5t-75 -30.5q-43 0 -73.5 30.5t-30.5 73.5z" />
<glyph unicode="&#xdd;" horiz-adv-x="1175" d="M12.5 1414q10.5 20 34.5 20h96q19 0 33 -19l414 -571l414 571q14 19 32 19h97q24 0 34 -20t-2 -40l-499 -682v-653q0 -15 -12 -27t-27 -12h-80q-17 0 -28 11.5t-11 27.5v651l-494 684q-12 20 -1.5 40zM383.5 1672q3.5 11 13.5 16l308 172q8 7 27 6t26 -13l37 -73 q6 -12 2.5 -25.5t-15.5 -17.5l-329 -138q-22 -9 -31.5 -8t-15.5 13l-21 45q-5 12 -1.5 23z" />
<glyph unicode="&#xde;" horiz-adv-x="1214" d="M197 39v1354q0 16 11 28.5t28 12.5h77q15 0 27 -12t12 -27v-219h336q189 0 324 -133.5t135 -319.5q0 -190 -134.5 -325.5t-322.5 -135.5h-338v-223q0 -15 -12 -27t-27 -12h-77q-17 0 -28 11.5t-11 27.5zM352 414h326q127 0 219 91t92 222q0 123 -92 208t-219 85h-326 v-606z" />
<glyph unicode="&#xdf;" horiz-adv-x="1185" d="M160 43v821q0 590 438 590q162 0 265.5 -92.5t103.5 -247.5q0 -71 -22.5 -137t-49.5 -105t-49.5 -78t-22.5 -63q0 -16 20 -37.5t50 -44t64.5 -57t64.5 -73t50 -96.5t20 -124q0 -152 -95.5 -237t-242.5 -85q-134 0 -203 31q-15 7 -21 11t-12 15t-2 25l19 68q12 43 49 27 q84 -39 170 -39q84 0 134 51.5t50 134.5q0 47 -21.5 89t-53 71.5t-69 61.5t-69 59.5t-53 65t-21.5 77.5q0 31 17 67.5t41 71.5t48 72t41 82t17 88q0 92 -62.5 151.5t-156.5 59.5q-151 0 -218 -114t-67 -341v-819q0 -17 -13 -30t-30 -13h-65q-17 0 -30 13t-13 30z" />
<glyph unicode="&#xe0;" horiz-adv-x="964" d="M86 287q0 139 100.5 226t278.5 87q44 0 95 -8t80 -16l28 -7q2 141 -29 200.5t-127 59.5q-23 0 -47.5 -2t-44.5 -4.5t-42.5 -7.5t-38 -8.5t-35.5 -9t-29 -8.5t-25 -8.5t-19 -6.5q-32 -13 -45 25l-20 55q-6 20 2 31.5t27 19.5q146 62 325 62q90 0 147.5 -22t89.5 -73.5 t44 -121.5t12 -181v-524q0 -19 -13 -32t-32 -13h-39q-29 0 -39 35l-18 63q-121 -121 -293 -121q-127 0 -210 85t-83 225zM236 287q0 -74 47 -123t123 -49q82 0 154 38.5t106 88.5v192q-72 37 -201 37q-102 0 -165.5 -48t-63.5 -136zM278 1299.5q-3 13.5 3 25.5l36 74 q7 12 26.5 12.5t27.5 -6.5l307 -172q10 -5 13.5 -16t-1.5 -23l-20 -45q-6 -12 -15.5 -12.5t-31.5 8.5l-330 137q-12 4 -15 17.5z" />
<glyph unicode="&#xe1;" horiz-adv-x="964" d="M86 287q0 139 100.5 226t278.5 87q44 0 95 -8t80 -16l28 -7q2 141 -29 200.5t-127 59.5q-23 0 -47.5 -2t-44.5 -4.5t-42.5 -7.5t-38 -8.5t-35.5 -9t-29 -8.5t-25 -8.5t-19 -6.5q-32 -13 -45 25l-20 55q-6 20 2 31.5t27 19.5q146 62 325 62q90 0 147.5 -22t89.5 -73.5 t44 -121.5t12 -181v-524q0 -19 -13 -32t-32 -13h-39q-29 0 -39 35l-18 63q-121 -121 -293 -121q-127 0 -210 85t-83 225zM236 287q0 -74 47 -123t123 -49q82 0 154 38.5t106 88.5v192q-72 37 -201 37q-102 0 -165.5 -48t-63.5 -136zM281.5 1217q3.5 11 13.5 16l307 172 q8 7 27 6.5t26 -12.5l37 -74q6 -12 3 -25.5t-15 -17.5l-330 -137q-22 -9 -31.5 -8.5t-15.5 12.5l-20 45q-5 12 -1.5 23z" />
<glyph unicode="&#xe2;" horiz-adv-x="964" d="M86 287q0 139 100.5 226t278.5 87q44 0 95 -8t80 -16l28 -7q2 141 -29 200.5t-127 59.5q-23 0 -47.5 -2t-44.5 -4.5t-42.5 -7.5t-38 -8.5t-35.5 -9t-29 -8.5t-25 -8.5t-19 -6.5q-32 -13 -45 25l-20 55q-6 20 2 31.5t27 19.5q146 62 325 62q90 0 147.5 -22t89.5 -73.5 t44 -121.5t12 -181v-524q0 -19 -13 -32t-32 -13h-39q-29 0 -39 35l-18 63q-121 -121 -293 -121q-127 0 -210 85t-83 225zM186 1174q-14 20 13 38l245 193q11 8 27 8t27 -8l245 -193q27 -18 13 -38q-3 -4 -10.5 -16.5t-12.5 -19t-13.5 -13.5t-18 -6t-21.5 9l-209 144 l-209 -139q-30 -19 -47 4zM236 287q0 -74 47 -123t123 -49q82 0 154 38.5t106 88.5v192q-72 37 -201 37q-102 0 -165.5 -48t-63.5 -136z" />
<glyph unicode="&#xe3;" horiz-adv-x="964" d="M86 287q0 139 100.5 226t278.5 87q44 0 95 -8t80 -16l28 -7q2 141 -29 200.5t-127 59.5q-23 0 -47.5 -2t-44.5 -4.5t-42.5 -7.5t-38 -8.5t-35.5 -9t-29 -8.5t-25 -8.5t-19 -6.5q-32 -13 -45 25l-20 55q-6 20 2 31.5t27 19.5q146 62 325 62q90 0 147.5 -22t89.5 -73.5 t44 -121.5t12 -181v-524q0 -19 -13 -32t-32 -13h-39q-29 0 -39 35l-18 63q-121 -121 -293 -121q-127 0 -210 85t-83 225zM168 1241q2 4 11 25t16 36.5t23 38t33.5 37t45 25t59.5 10.5q34 0 64 -15.5t51 -37.5t39 -44.5t36.5 -38t35.5 -15.5q62 0 92 104q10 32 47 16l33 -16 q6 -3 9.5 -7.5t4.5 -8.5t0.5 -10t-1 -9.5t-3 -10t-2.5 -7.5q-56 -166 -182 -166q-38 0 -74.5 24t-59.5 52.5t-48.5 52.5t-43.5 24q-19 0 -34.5 -9t-26.5 -26.5t-16.5 -31.5t-12.5 -35q-5 -17 -17.5 -23t-33.5 3l-37 18q-22 11 -8 45zM236 287q0 -74 47 -123t123 -49 q82 0 154 38.5t106 88.5v192q-72 37 -201 37q-102 0 -165.5 -48t-63.5 -136z" />
<glyph unicode="&#xe4;" horiz-adv-x="964" d="M86 287q0 139 100.5 226t278.5 87q44 0 95 -8t80 -16l28 -7q2 141 -29 200.5t-127 59.5q-23 0 -47.5 -2t-44.5 -4.5t-42.5 -7.5t-38 -8.5t-35.5 -9t-29 -8.5t-25 -8.5t-19 -6.5q-32 -13 -45 25l-20 55q-6 20 2 31.5t27 19.5q146 62 325 62q90 0 147.5 -22t89.5 -73.5 t44 -121.5t12 -181v-524q0 -19 -13 -32t-32 -13h-39q-29 0 -39 35l-18 63q-121 -121 -293 -121q-127 0 -210 85t-83 225zM190 1294q0 44 31 75.5t74 31.5q44 0 75 -31.5t31 -75.5q0 -43 -31 -73.5t-75 -30.5q-43 0 -74 30.5t-31 73.5zM236 287q0 -74 47 -123t123 -49 q82 0 154 38.5t106 88.5v192q-72 37 -201 37q-102 0 -165.5 -48t-63.5 -136zM586 1294q0 44 30.5 75.5t73.5 31.5q44 0 75.5 -31.5t31.5 -75.5q0 -43 -31.5 -73.5t-75.5 -30.5q-43 0 -73.5 30.5t-30.5 73.5z" />
<glyph unicode="&#xe5;" horiz-adv-x="964" d="M86 287q0 139 100.5 226t278.5 87q44 0 95 -8t80 -16l28 -7q2 141 -29 200.5t-127 59.5q-23 0 -47.5 -2t-44.5 -4.5t-42.5 -7.5t-38 -8.5t-35.5 -9t-29 -8.5t-25 -8.5t-19 -6.5q-32 -13 -45 25l-20 55q-6 20 2 31.5t27 19.5q146 62 325 62q90 0 147.5 -22t89.5 -73.5 t44 -121.5t12 -181v-524q0 -19 -13 -32t-32 -13h-39q-29 0 -39 35l-18 63q-121 -121 -293 -121q-127 0 -210 85t-83 225zM236 287q0 -74 47 -123t123 -49q82 0 154 38.5t106 88.5v192q-72 37 -201 37q-102 0 -165.5 -48t-63.5 -136zM246 1274q0 94 64.5 158.5t158.5 64.5 q93 0 158 -65t65 -158t-65 -158t-158 -65q-94 0 -158.5 64.5t-64.5 158.5zM344 1274q0 -50 38 -87.5t87 -37.5t85 37.5t36 87.5t-36 85.5t-85 35.5q-50 0 -87.5 -36t-37.5 -85z" />
<glyph unicode="&#xe6;" horiz-adv-x="1617" d="M88 291q0 136 94.5 221.5t255.5 85.5q51 0 108 -3t88 -6l32 -3q3 136 -27 189.5t-117 53.5q-41 0 -82 -4.5t-76.5 -12t-59 -13.5t-51 -15t-32.5 -10q-17 -6 -31.5 4t-17.5 29l-12 57q-5 34 39 47q17 6 46.5 15.5t116.5 25t168 15.5q114 0 172 -32t86 -97q60 60 142 94.5 t174 34.5q181 0 303.5 -119t122.5 -311q0 -22 -1 -36t-5.5 -30.5t-14.5 -24.5t-26 -8h-670v-153q45 -76 127.5 -123t177.5 -47q126 0 242 78q20 13 27 16.5t18 1t22 -17.5l33 -48q14 -15 14 -28t-24 -31q-56 -43 -146.5 -76t-201.5 -33q-230 0 -357 168q-56 -69 -148 -118.5 t-198 -49.5q-139 0 -225 85.5t-86 228.5zM240 289q0 -85 55.5 -129.5t134.5 -44.5q71 0 137.5 37.5t98.5 85.5v217q-76 18 -203 18q-93 0 -158 -49.5t-65 -134.5zM817 561h551q0 114 -78.5 191t-187.5 77q-86 0 -165 -45.5t-120 -113.5v-109z" />
<glyph unicode="&#xe7;" horiz-adv-x="1024" d="M98 471q0 137 65 251.5t175.5 179.5t239.5 65q207 0 344 -156q13 -17 10.5 -35.5t-19.5 -32.5l-32 -30q-14 -13 -27.5 -12t-21 7t-19.5 19q-91 102 -238 102q-133 0 -228 -106.5t-95 -249.5t93.5 -250.5t223.5 -107.5q41 0 77.5 9t59.5 20t49 33t37.5 34.5t34.5 38.5 q35 41 80 -4l13 -13q33 -33 12 -65q-56 -80 -143.5 -132.5t-192.5 -58.5l-74 -114q24 8 51 8q73 0 126 -42.5t53 -127.5t-68 -139t-162 -54q-106 0 -168 58q-14 14 0 43l17 31q15 29 43 10q41 -41 102 -41q53 0 84 21.5t31 62.5q0 84 -109 84q-56 0 -98 -21q-10 -4 -20 6 t-5 21l97 201q-173 28 -285.5 163t-112.5 324z" />
<glyph unicode="&#xe8;" horiz-adv-x="1075" d="M100 473q0 134 54 245.5t160 180t245 68.5q186 0 307 -122t121 -308q0 -26 -4 -58q-1 -18 -14 -29.5t-29 -11.5h-688q3 -123 93.5 -223t215.5 -100q138 0 256 78q27 19 40.5 19t31.5 -26l24 -34q9 -15 11.5 -19.5t4 -13.5t-4.5 -16t-19 -17q-53 -42 -144 -75.5 t-202 -33.5q-139 0 -245 68t-160 180t-54 248zM254 559h582q-3 108 -81 189t-196 81t-204.5 -79t-100.5 -191zM321 1299.5q-3 13.5 3 25.5l36 74q7 12 26.5 12.5t27.5 -6.5l307 -172q10 -5 13.5 -16t-1.5 -23l-20 -45q-6 -12 -15.5 -12.5t-31.5 8.5l-330 137q-12 4 -15 17.5 z" />
<glyph unicode="&#xe9;" horiz-adv-x="1075" d="M100 473q0 134 54 245.5t160 180t245 68.5q186 0 307 -122t121 -308q0 -26 -4 -58q-1 -18 -14 -29.5t-29 -11.5h-688q3 -123 93.5 -223t215.5 -100q138 0 256 78q27 19 40.5 19t31.5 -26l24 -34q9 -15 11.5 -19.5t4 -13.5t-4.5 -16t-19 -17q-53 -42 -144 -75.5 t-202 -33.5q-139 0 -245 68t-160 180t-54 248zM254 559h582q-3 108 -81 189t-196 81t-204.5 -79t-100.5 -191zM361 1217q4 11 14 16l307 172q8 7 27 6.5t26 -12.5l37 -74q6 -12 3 -25.5t-15 -17.5l-330 -137q-22 -9 -31.5 -8.5t-15.5 12.5l-21 45q-5 12 -1 23z" />
<glyph unicode="&#xea;" horiz-adv-x="1075" d="M100 473q0 134 54 245.5t160 180t245 68.5q186 0 307 -122t121 -308q0 -26 -4 -58q-1 -18 -14 -29.5t-29 -11.5h-688q3 -123 93.5 -223t215.5 -100q138 0 256 78q27 19 40.5 19t31.5 -26l24 -34q9 -15 11.5 -19.5t4 -13.5t-4.5 -16t-19 -17q-53 -42 -144 -75.5 t-202 -33.5q-139 0 -245 68t-160 180t-54 248zM254 559h582q-3 108 -81 189t-196 81t-204.5 -79t-100.5 -191zM283 1195q4 10 14 17l246 193q11 8 26 8q16 0 27 -8l246 -193q10 -7 14 -17t-2 -21q-3 -4 -10.5 -16.5t-12.5 -19t-13.5 -13.5t-18 -6t-21.5 9l-209 144 l-209 -139q-30 -19 -47 4l-28 37q-6 11 -2 21z" />
<glyph unicode="&#xeb;" horiz-adv-x="1075" d="M100 473q0 134 54 245.5t160 180t245 68.5q186 0 307 -122t121 -308q0 -26 -4 -58q-1 -18 -14 -29.5t-29 -11.5h-688q3 -123 93.5 -223t215.5 -100q138 0 256 78q27 19 40.5 19t31.5 -26l24 -34q9 -15 11.5 -19.5t4 -13.5t-4.5 -16t-19 -17q-53 -42 -144 -75.5 t-202 -33.5q-139 0 -245 68t-160 180t-54 248zM254 559h582q-3 108 -81 189t-196 81t-204.5 -79t-100.5 -191zM258 1294q0 44 30.5 75.5t73.5 31.5q44 0 75.5 -31.5t31.5 -75.5q0 -43 -31.5 -73.5t-75.5 -30.5q-43 0 -73.5 30.5t-30.5 73.5zM653 1294q0 44 31 75.5t74 31.5 q44 0 75 -31.5t31 -75.5q0 -43 -31 -73.5t-75 -30.5q-43 0 -74 30.5t-31 73.5z" />
<glyph unicode="&#xec;" horiz-adv-x="471" d="M34 1299.5q-3 13.5 3 25.5l37 74q7 12 26 12.5t27 -6.5l307 -172q10 -5 13.5 -16t-1.5 -23l-20 -45q-6 -12 -15.5 -12.5t-31.5 8.5l-330 137q-12 4 -15 17.5zM160 45v856q0 18 13.5 31.5t31.5 13.5h61q17 0 31 -14t14 -31v-856q0 -18 -13.5 -31.5t-31.5 -13.5h-61 q-19 0 -32 13t-13 32z" />
<glyph unicode="&#xed;" horiz-adv-x="471" d="M37.5 1217q3.5 11 13.5 16l307 172q8 7 27.5 6.5t26.5 -12.5l37 -74q6 -12 2.5 -25.5t-15.5 -17.5l-330 -137q-22 -9 -31.5 -8.5t-15.5 12.5l-20 45q-5 12 -1.5 23zM160 45v856q0 18 13.5 31.5t31.5 13.5h61q17 0 31 -14t14 -31v-856q0 -18 -13.5 -31.5t-31.5 -13.5h-61 q-19 0 -32 13t-13 32z" />
<glyph unicode="&#xee;" horiz-adv-x="471" d="M-45 1195q4 10 14 17l246 193q11 8 27 8q15 0 26 -8l246 -193q10 -7 14 -17t-2 -21q-3 -5 -10.5 -17t-12.5 -18.5t-13 -13.5t-17.5 -6t-21.5 9l-209 144l-209 -139q-30 -19 -47 4l-29 37q-6 11 -2 21zM160 45v856q0 18 13.5 31.5t31.5 13.5h61q17 0 31 -14t14 -31v-856 q0 -18 -13.5 -31.5t-31.5 -13.5h-61q-19 0 -32 13t-13 32z" />
<glyph unicode="&#xef;" horiz-adv-x="471" d="M-66 1294q0 44 31 75.5t74 31.5q44 0 75 -31.5t31 -75.5q0 -43 -31 -73.5t-75 -30.5q-43 0 -74 30.5t-31 73.5zM160 45v856q0 18 13.5 31.5t31.5 13.5h61q17 0 31 -14t14 -31v-856q0 -18 -13.5 -31.5t-31.5 -13.5h-61q-19 0 -32 13t-13 32zM330 1294q0 44 30.5 75.5 t73.5 31.5q44 0 75.5 -31.5t31.5 -75.5q0 -43 -31.5 -73.5t-75.5 -30.5q-43 0 -73.5 30.5t-30.5 73.5z" />
<glyph unicode="&#xf0;" horiz-adv-x="1181" d="M102 463q0 136 64 242t167 160.5t224 54.5q80 0 160 -24t120 -48l40 -23q-50 192 -271 363l-205 -119q-14 -7 -29.5 -2.5t-21.5 16.5l-8 17q-9 12 -5.5 27.5t17.5 23.5l168 98q-121 78 -209 111q-34 14 -16 51l27 57q5 11 17.5 15t25.5 0q148 -56 290 -156l148 84 q18 8 32.5 4t22.5 -18l8 -15q8 -13 3.5 -28.5t-17.5 -24.5l-115 -65q322 -278 322 -684q0 -129 -29.5 -236t-88 -189.5t-154 -128.5t-220.5 -46q-134 0 -241.5 65t-166.5 175.5t-59 242.5zM252 453q0 -136 92.5 -235t224.5 -99q89 0 157.5 39t108 103t59 138t19.5 152 q0 32 -8 94q-6 6 -16 15t-44.5 32.5t-71 41.5t-92 33t-110.5 15q-134 0 -226.5 -95.5t-92.5 -233.5z" />
<glyph unicode="&#xf1;" horiz-adv-x="1103" d="M160 45v856q0 18 13.5 31.5t31.5 13.5h33q30 0 36 -28l21 -72q5 5 14 13t40.5 29t66 37t88 29t108.5 13q100 0 168.5 -30.5t105.5 -90t52.5 -131.5t15.5 -170v-500q0 -18 -13.5 -31.5t-31.5 -13.5h-61q-19 0 -32 13t-13 32v520q0 135 -48.5 199.5t-152.5 64.5 q-50 0 -98 -13.5t-81.5 -32.5t-60 -38.5t-38.5 -32.5l-13 -14v-653q0 -18 -13.5 -31.5t-31.5 -13.5h-61q-19 0 -32 13t-13 32zM260 1241q2 3 11 25t16 37t23.5 37.5t34 36.5t45 25t59.5 11q42 0 78 -23.5t57 -52t45.5 -52t44.5 -23.5q62 0 92 104q10 32 47 16l33 -16 q6 -3 9.5 -7.5t4.5 -8.5t0.5 -10t-1 -9.5t-3 -10t-2.5 -7.5q-56 -166 -182 -166q-38 0 -74.5 24t-59.5 52.5t-48.5 52.5t-43.5 24q-19 0 -34.5 -9t-26.5 -26.5t-16.5 -31.5t-12.5 -35q-5 -17 -17.5 -23t-33.5 3l-37 18q-22 11 -8 45z" />
<glyph unicode="&#xf2;" horiz-adv-x="1146" d="M98 475q0 131 63.5 244.5t173.5 180.5t238 67t238 -67t174 -180.5t64 -244.5q0 -133 -64 -248t-173.5 -182.5t-238.5 -67.5t-238.5 68t-173 182.5t-63.5 247.5zM248 475q0 -149 93.5 -254.5t231.5 -105.5t231 105.5t93 254.5q0 147 -93 250.5t-231 103.5t-231.5 -104 t-93.5 -250zM362 1299.5q-3 13.5 3 25.5l36 74q7 12 26.5 12.5t27.5 -6.5l307 -172q10 -5 13.5 -16t-1.5 -23l-20 -45q-6 -12 -15.5 -12.5t-31.5 8.5l-330 137q-12 4 -15 17.5z" />
<glyph unicode="&#xf3;" horiz-adv-x="1146" d="M98 475q0 131 63.5 244.5t173.5 180.5t238 67t238 -67t174 -180.5t64 -244.5q0 -133 -64 -248t-173.5 -182.5t-238.5 -67.5t-238.5 68t-173 182.5t-63.5 247.5zM248 475q0 -149 93.5 -254.5t231.5 -105.5t231 105.5t93 254.5q0 147 -93 250.5t-231 103.5t-231.5 -104 t-93.5 -250zM365.5 1217q3.5 11 13.5 16l307 172q8 7 27 6.5t26 -12.5l37 -74q6 -12 3 -25.5t-15 -17.5l-330 -137q-22 -9 -31.5 -8.5t-15.5 12.5l-20 45q-5 12 -1.5 23z" />
<glyph unicode="&#xf4;" horiz-adv-x="1146" d="M98 475q0 131 63.5 244.5t173.5 180.5t238 67t238 -67t174 -180.5t64 -244.5q0 -133 -64 -248t-173.5 -182.5t-238.5 -67.5t-238.5 68t-173 182.5t-63.5 247.5zM248 475q0 -149 93.5 -254.5t231.5 -105.5t231 105.5t93 254.5q0 147 -93 250.5t-231 103.5t-231.5 -104 t-93.5 -250zM281 1195q4 10 14 17l246 193q11 8 26 8q16 0 27 -8l246 -193q10 -7 14 -17t-2 -21q-3 -4 -10.5 -16.5t-12.5 -19t-13.5 -13.5t-18 -6t-21.5 9l-209 144l-209 -139q-30 -19 -47 4l-28 37q-6 11 -2 21z" />
<glyph unicode="&#xf5;" horiz-adv-x="1146" d="M98 475q0 131 63.5 244.5t173.5 180.5t238 67t238 -67t174 -180.5t64 -244.5q0 -133 -64 -248t-173.5 -182.5t-238.5 -67.5t-238.5 68t-173 182.5t-63.5 247.5zM248 475q0 -149 93.5 -254.5t231.5 -105.5t231 105.5t93 254.5q0 147 -93 250.5t-231 103.5t-231.5 -104 t-93.5 -250zM270 1241q2 3 11 25t16 37t23.5 37.5t34 36.5t45 25t59.5 11q42 0 78 -23.5t57 -52t45.5 -52t44.5 -23.5q62 0 92 104q10 32 47 16l33 -16q6 -3 9.5 -7.5t4.5 -8.5t0.5 -10t-1 -9.5t-3 -10t-2.5 -7.5q-56 -166 -182 -166q-38 0 -74.5 24t-59 52.5t-48 52.5 t-43.5 24q-19 0 -34.5 -9t-26.5 -26.5t-16.5 -31.5t-12.5 -35q-5 -16 -18 -22.5t-34 2.5l-36 18q-23 12 -9 45z" />
<glyph unicode="&#xf6;" horiz-adv-x="1146" d="M98 475q0 131 63.5 244.5t173.5 180.5t238 67t238 -67t174 -180.5t64 -244.5q0 -133 -64 -248t-173.5 -182.5t-238.5 -67.5t-238.5 68t-173 182.5t-63.5 247.5zM248 475q0 -149 93.5 -254.5t231.5 -105.5t231 105.5t93 254.5q0 147 -93 250.5t-231 103.5t-231.5 -104 t-93.5 -250zM266 1294q0 44 31 75.5t74 31.5q44 0 75 -31.5t31 -75.5q0 -43 -31 -73.5t-75 -30.5q-43 0 -74 30.5t-31 73.5zM662 1294q0 44 30.5 75.5t73.5 31.5q44 0 75 -31.5t31 -75.5q0 -43 -31 -73.5t-75 -30.5q-43 0 -73.5 30.5t-30.5 73.5z" />
<glyph unicode="&#xf7;" d="M186 682v57q0 15 12 27t27 12h781q15 0 25.5 -12t10.5 -27v-57q0 -15 -10.5 -27t-25.5 -12h-781q-15 0 -27 12t-12 27zM492 350q0 49 34 83t82 34q50 0 83.5 -33.5t33.5 -83.5q0 -48 -34 -82.5t-83 -34.5q-47 0 -81.5 35t-34.5 82zM492 1083q0 49 34 83t82 34 q50 0 83.5 -34t33.5 -83q0 -48 -34 -82t-83 -34q-47 0 -81.5 34.5t-34.5 81.5z" />
<glyph unicode="&#xf8;" horiz-adv-x="1144" d="M98 475q0 131 63.5 244.5t173.5 180.5t238 67q173 0 304 -115l49 49q15 13 34 13t31 -13l10 -10q15 -13 15 -32t-15 -32l-53 -53q101 -135 101 -299q0 -133 -64 -248t-173.5 -182.5t-238.5 -67.5q-169 0 -301 113l-34 -35q-12 -12 -30 -11t-30 13l-12 13 q-14 14 -14.5 31.5t12.5 29.5l37 37q-103 131 -103 307zM246 475q0 -115 55 -205l477 482q-90 77 -205 77q-138 0 -232.5 -104t-94.5 -250zM371 190q88 -75 202 -75q138 0 232 105.5t94 254.5q0 103 -53 195z" />
<glyph unicode="&#xf9;" horiz-adv-x="1077" d="M150 391v510q0 18 12.5 31.5t32.5 13.5h61q18 0 31.5 -13.5t13.5 -31.5v-512q0 -141 48 -207.5t151 -66.5q148 0 268 137v649q0 18 12.5 31.5t30.5 13.5h63q17 0 30.5 -14t13.5 -31v-856q0 -19 -13 -32t-31 -13h-32q-33 0 -43 41l-19 59q-116 -123 -293 -123 q-99 0 -166.5 28.5t-104 85.5t-51.5 128.5t-15 171.5zM333 1299.5q-3 13.5 3 25.5l37 74q7 12 26 12.5t27 -6.5l307 -172q10 -5 13.5 -16t-1.5 -23l-20 -45q-6 -12 -15.5 -12.5t-31.5 8.5l-330 137q-12 4 -15 17.5z" />
<glyph unicode="&#xfa;" horiz-adv-x="1077" d="M150 391v510q0 18 12.5 31.5t32.5 13.5h61q18 0 31.5 -13.5t13.5 -31.5v-512q0 -141 48 -207.5t151 -66.5q148 0 268 137v649q0 18 12.5 31.5t30.5 13.5h63q17 0 30.5 -14t13.5 -31v-856q0 -19 -13 -32t-31 -13h-32q-33 0 -43 41l-19 59q-116 -123 -293 -123 q-99 0 -166.5 28.5t-104 85.5t-51.5 128.5t-15 171.5zM351 1217q4 11 14 16l307 172q8 7 27 6.5t26 -12.5l37 -74q6 -12 3 -25.5t-15 -17.5l-330 -137q-22 -9 -31.5 -8.5t-15.5 12.5l-21 45q-5 12 -1 23z" />
<glyph unicode="&#xfb;" horiz-adv-x="1077" d="M150 391v510q0 18 12.5 31.5t32.5 13.5h61q18 0 31.5 -13.5t13.5 -31.5v-512q0 -141 48 -207.5t151 -66.5q148 0 268 137v649q0 18 12.5 31.5t30.5 13.5h63q17 0 30.5 -14t13.5 -31v-856q0 -19 -13 -32t-31 -13h-32q-33 0 -43 41l-19 59q-116 -123 -293 -123 q-99 0 -166.5 28.5t-104 85.5t-51.5 128.5t-15 171.5zM258 1195q4 10 14 17l246 193q11 8 27 8q15 0 26 -8l246 -193q10 -7 14 -17t-2 -21q-3 -5 -10.5 -17t-12.5 -18.5t-13 -13.5t-17.5 -6t-21.5 9l-209 144l-209 -139q-30 -19 -47 4l-29 37q-6 11 -2 21z" />
<glyph unicode="&#xfc;" horiz-adv-x="1077" d="M150 391v510q0 18 12.5 31.5t32.5 13.5h61q18 0 31.5 -13.5t13.5 -31.5v-512q0 -141 48 -207.5t151 -66.5q148 0 268 137v649q0 18 12.5 31.5t30.5 13.5h63q17 0 30.5 -14t13.5 -31v-856q0 -19 -13 -32t-31 -13h-32q-33 0 -43 41l-19 59q-116 -123 -293 -123 q-99 0 -166.5 28.5t-104 85.5t-51.5 128.5t-15 171.5zM240 1294q0 44 30.5 75.5t73.5 31.5q44 0 75.5 -31.5t31.5 -75.5q0 -43 -31.5 -73.5t-75.5 -30.5q-43 0 -73.5 30.5t-30.5 73.5zM635 1294q0 44 30.5 75.5t73.5 31.5q44 0 75.5 -31.5t31.5 -75.5q0 -43 -31.5 -73.5 t-75.5 -30.5q-43 0 -73.5 30.5t-30.5 73.5z" />
<glyph unicode="&#xfd;" horiz-adv-x="1024" d="M59 895q-9 24 0.5 37.5t36.5 13.5h86q31 0 41 -26l269 -752h4l319 752q10 26 41 26h76q28 0 38 -15t-1 -38l-592 -1352q-5 -11 -17 -19.5t-24 -8.5h-74q-28 0 -39 16t0 41l183 432zM291.5 1217q3.5 11 13.5 16l307 172q8 7 27.5 6.5t26.5 -12.5l36 -74q6 -12 3 -25.5 t-15 -17.5l-330 -137q-22 -9 -31.5 -8.5t-15.5 12.5l-20 45q-5 12 -1.5 23z" />
<glyph unicode="&#xfe;" horiz-adv-x="1118" d="M160 -442v1831q0 18 13.5 31.5t31.5 13.5h59q17 0 31 -14t14 -31v-512q4 4 11.5 10t34 21.5t55.5 27.5t74.5 21.5t93.5 9.5q132 0 233.5 -68t154 -180t52.5 -248q0 -138 -57 -251t-159.5 -178t-230.5 -65q-70 0 -135.5 19.5t-95.5 39.5l-31 19v-497q0 -18 -13.5 -31.5 t-31.5 -13.5h-59q-19 0 -32 13t-13 32zM309 201q4 -3 12.5 -9t34 -21t52.5 -26t65.5 -20.5t75.5 -9.5q138 0 226.5 98t88.5 260q0 95 -32.5 174t-103.5 130.5t-169 51.5q-43 0 -84 -12t-70 -29t-51.5 -34t-33.5 -29l-11 -12v-512z" />
<glyph unicode="&#xff;" horiz-adv-x="1024" d="M59 895q-9 24 0.5 37.5t36.5 13.5h86q31 0 41 -26l269 -752h4l319 752q10 26 41 26h76q28 0 38 -15t-1 -38l-592 -1352q-5 -11 -17 -19.5t-24 -8.5h-74q-28 0 -39 16t0 41l183 432zM211 1294q0 44 30.5 75.5t73.5 31.5q44 0 75.5 -31.5t31.5 -75.5q0 -43 -31.5 -73.5 t-75.5 -30.5q-43 0 -73.5 30.5t-30.5 73.5zM606 1294q0 44 31 75.5t74 31.5q44 0 75 -31.5t31 -75.5q0 -43 -31 -73.5t-75 -30.5q-43 0 -74 30.5t-31 73.5z" />
<glyph unicode="&#x152;" horiz-adv-x="1961" d="M106 715q0 151 58 288t156 236t234.5 157t287.5 58q41 0 85 -5t67 -10l24 -5h807q17 0 28 -11.5t11 -27.5v-60q0 -16 -11 -27.5t-28 -11.5h-688v-499h587q15 0 27 -12t12 -27v-60q0 -17 -11.5 -28t-27.5 -11h-587v-522h688q17 0 28 -11.5t11 -27.5v-59q0 -16 -11 -27.5 t-28 -11.5h-807q-84 -20 -176 -20q-202 0 -371 97.5t-267 266.5t-98 371zM250 715q0 -160 79.5 -296.5t216 -216t296.5 -79.5q74 0 137 14v1155q-76 17 -137 17q-160 0 -296.5 -80t-216 -217t-79.5 -297z" />
<glyph unicode="&#x153;" horiz-adv-x="1843" d="M98 477q0 131 62 244t170.5 179.5t236.5 66.5q116 0 219 -54.5t168 -148.5q131 203 373 203q181 0 304.5 -119t123.5 -311q0 -26 -4 -58q-1 -18 -14 -29.5t-29 -11.5h-680q6 -134 101 -228.5t214 -94.5q80 0 132.5 18.5t121.5 59.5q7 5 17 7.5t23 -0.5t20 -14l26 -41 q2 -2 6 -8.5t5 -8.5t3 -7t0.5 -8t-3.5 -7.5t-7 -9t-12 -10.5q-53 -42 -145 -75.5t-203 -33.5q-119 0 -213.5 58t-159.5 158q-67 -97 -170 -156.5t-217 -59.5q-128 0 -236.5 68.5t-170.5 183.5t-62 248zM244 475q0 -149 94.5 -254.5t232.5 -105.5t230 105t92 255 q0 147 -92 250.5t-230 103.5t-232.5 -104t-94.5 -250zM1032 557h572q-4 120 -82 196t-195 76t-200.5 -80t-94.5 -192z" />
<glyph unicode="&#x178;" horiz-adv-x="1175" d="M12.5 1414q10.5 20 34.5 20h96q19 0 33 -19l414 -571l414 571q14 19 32 19h97q24 0 34 -20t-2 -40l-499 -682v-653q0 -15 -12 -27t-27 -12h-80q-17 0 -28 11.5t-11 27.5v651l-494 684q-12 20 -1.5 40zM268 1718q0 44 31 75.5t74 31.5q44 0 75 -31.5t31 -75.5 q0 -43 -31 -73.5t-75 -30.5q-43 0 -74 30.5t-31 73.5zM700 1718q0 44 31 75.5t74 31.5q44 0 75 -31.5t31 -75.5q0 -43 -31 -73.5t-75 -30.5q-43 0 -74 30.5t-31 73.5z" />
<glyph unicode="&#x2c6;" horiz-adv-x="763" d="M92 1195q4 10 14 17l246 193q11 8 27 8t27 -8l245 -193q27 -18 13 -38q-3 -4 -10.5 -16.5t-12.5 -19t-13.5 -13.5t-18 -6t-21.5 9l-209 144l-209 -139q-30 -19 -47 4l-29 37q-6 11 -2 21z" />
<glyph unicode="&#x2dc;" horiz-adv-x="778" d="M86 1241q2 4 11 25t16 36.5t23 38t33.5 37t45 25t59.5 10.5q34 0 64 -15.5t51 -37.5t39 -44.5t36.5 -38t35.5 -15.5q62 0 92 104q10 32 47 16l33 -16q6 -3 9.5 -7.5t4.5 -8.5t0.5 -10t-1 -9.5t-3 -10t-2.5 -7.5q-56 -166 -182 -166q-38 0 -74.5 24t-59.5 52.5t-48.5 52.5 t-43.5 24q-19 0 -34.5 -9t-26.5 -26.5t-16.5 -31.5t-12.5 -35q-5 -17 -17.5 -23t-33.5 3l-37 18q-22 11 -8 45z" />
<glyph unicode="&#x2000;" horiz-adv-x="999" />
<glyph unicode="&#x2001;" horiz-adv-x="1999" />
<glyph unicode="&#x2002;" horiz-adv-x="999" />
<glyph unicode="&#x2003;" horiz-adv-x="1999" />
<glyph unicode="&#x2004;" horiz-adv-x="666" />
<glyph unicode="&#x2005;" horiz-adv-x="499" />
<glyph unicode="&#x2006;" horiz-adv-x="333" />
<glyph unicode="&#x2007;" horiz-adv-x="333" />
<glyph unicode="&#x2008;" horiz-adv-x="249" />
<glyph unicode="&#x2009;" horiz-adv-x="399" />
<glyph unicode="&#x200a;" horiz-adv-x="111" />
<glyph unicode="&#x2010;" horiz-adv-x="784" d="M139 487v39q0 17 11 28t28 11h428q17 0 28 -11t11 -28v-39q0 -15 -11 -25.5t-28 -10.5h-428q-17 0 -28 10.5t-11 25.5z" />
<glyph unicode="&#x2011;" horiz-adv-x="784" d="M139 487v39q0 17 11 28t28 11h428q17 0 28 -11t11 -28v-39q0 -15 -11 -25.5t-28 -10.5h-428q-17 0 -28 10.5t-11 25.5z" />
<glyph unicode="&#x2012;" horiz-adv-x="784" d="M139 487v39q0 17 11 28t28 11h428q17 0 28 -11t11 -28v-39q0 -15 -11 -25.5t-28 -10.5h-428q-17 0 -28 10.5t-11 25.5z" />
<glyph unicode="&#x2013;" horiz-adv-x="1105" d="M135 494v22q0 17 11 28t28 11h756q17 0 28 -11t11 -28v-22q0 -15 -11 -26t-28 -11h-756q-17 0 -28 11t-11 26z" />
<glyph unicode="&#x2014;" horiz-adv-x="1556" d="M135 494v22q0 17 11 28t28 11h1206q17 0 28 -11t11 -28v-22q0 -15 -11 -26t-28 -11h-1206q-17 0 -28 11t-11 26z" />
<glyph unicode="&#x2018;" horiz-adv-x="477" d="M109 1102q0 191 139 342q16 16 33 2l38 -35q17 -17 -2 -37q-114 -122 -114 -244q0 -26 8 -47q27 19 68 19q46 0 72 -31.5t26 -69.5q0 -55 -30.5 -89.5t-84.5 -34.5q-72 0 -112.5 63.5t-40.5 161.5z" />
<glyph unicode="&#x2019;" horiz-adv-x="471" d="M98 1331q0 56 30.5 90.5t84.5 34.5q73 0 113.5 -63.5t40.5 -161.5q0 -190 -140 -342q-15 -15 -32 -2l-39 35q-17 17 2 36q114 122 114 244q0 26 -8 47q-25 -18 -67 -18q-46 0 -72.5 31t-26.5 69z" />
<glyph unicode="&#x201a;" horiz-adv-x="493" d="M117 100q0 56 30 90.5t84 34.5q73 0 113.5 -63.5t40.5 -161.5q0 -191 -139 -342q-16 -16 -33 -2l-39 35q-18 17 2 37q53 56 84 113.5t31 129.5q0 26 -8 47q-25 -18 -68 -18q-46 0 -72 31t-26 69z" />
<glyph unicode="&#x201c;" horiz-adv-x="845" d="M109 1102q0 191 139 342q16 16 33 2l38 -35q17 -17 -2 -37q-114 -122 -114 -244q0 -26 8 -47q27 19 68 19q46 0 72 -31.5t26 -69.5q0 -55 -30.5 -89.5t-84.5 -34.5q-72 0 -112.5 63.5t-40.5 161.5zM477 1102q0 191 139 342q16 16 33 2l39 -35q18 -17 -2 -37 q-115 -123 -115 -244q0 -23 9 -47q27 19 67 19q46 0 72 -31.5t26 -69.5q0 -56 -30 -90t-84 -34q-73 0 -113.5 63.5t-40.5 161.5z" />
<glyph unicode="&#x201d;" horiz-adv-x="839" d="M98 1331q0 56 30.5 90.5t84.5 34.5q73 0 113.5 -63.5t40.5 -161.5q0 -190 -140 -342q-15 -15 -32 -2l-39 35q-17 17 2 36q114 122 114 244q0 26 -8 47q-25 -18 -67 -18q-46 0 -72.5 31t-26.5 69zM467 1331q0 56 30.5 90.5t84.5 34.5q72 0 112.5 -63.5t40.5 -161.5 q0 -191 -139 -342q-16 -16 -33 -2l-39 35q-17 17 2 36q115 123 115 244q0 26 -8 47q-25 -18 -68 -18q-46 0 -72 31t-26 69z" />
<glyph unicode="&#x201e;" horiz-adv-x="860" d="M117 100q0 56 30 90.5t84 34.5q73 0 113.5 -63.5t40.5 -161.5q0 -191 -139 -342q-16 -16 -33 -2l-39 35q-18 17 2 37q53 56 84 113.5t31 129.5q0 26 -8 47q-25 -18 -68 -18q-46 0 -72 31t-26 69zM483 100q0 56 30.5 90.5t84.5 34.5q72 0 113 -63.5t41 -161.5 q0 -190 -140 -342q-15 -15 -32 -2l-39 35q-17 17 2 37q114 122 114 243q0 26 -8 47q-25 -18 -67 -18q-46 0 -72.5 31t-26.5 69z" />
<glyph unicode="&#x2022;" horiz-adv-x="761" d="M162 520q0 92 63.5 157.5t151.5 65.5q92 0 157.5 -65.5t65.5 -157.5q0 -88 -65.5 -151.5t-157.5 -63.5q-88 0 -151.5 63.5t-63.5 151.5z" />
<glyph unicode="&#x2026;" horiz-adv-x="1265" d="M117 96q0 49 34 83t82 34q49 0 83 -33.5t34 -83.5q0 -48 -34 -82t-83 -34q-47 0 -81.5 34.5t-34.5 81.5zM512 96q0 49 34.5 83t82.5 34q49 0 82.5 -33.5t33.5 -83.5q0 -48 -33.5 -82t-82.5 -34q-47 0 -82 34.5t-35 81.5zM915 96q0 49 34.5 83t82.5 34q50 0 83.5 -33.5 t33.5 -83.5q0 -48 -34 -82t-83 -34q-47 0 -82 34.5t-35 81.5z" />
<glyph unicode="&#x202f;" horiz-adv-x="399" />
<glyph unicode="&#x2039;" horiz-adv-x="552" d="M106 459q-17 23 0 49l224 303q18 25 37 25h28q26 0 35 -19.5t-4 -44.5l-152 -285l146 -301q11 -25 3 -43t-34 -18h-39q-19 0 -31 16z" />
<glyph unicode="&#x203a;" horiz-adv-x="552" d="M121 816.5q9 19.5 35 19.5h28q20 0 37 -25l223 -303q17 -26 0 -49l-213 -318q-12 -16 -30 -16h-39q-26 0 -34 18t3 43l145 301l-151 285q-13 25 -4 44.5z" />
<glyph unicode="&#x205f;" horiz-adv-x="499" />
<glyph unicode="&#x20ac;" d="M57 557v14q0 15 11 27t26 12h101q-5 82 -5 105v49h-96q-15 0 -26 12t-11 27v14q0 15 11 27t26 12h105q16 123 58.5 229.5t110.5 190t166.5 131t217.5 47.5q127 0 214 -40t164 -120q28 -28 5 -57l-41 -55q-13 -16 -31 -16t-37 18q-65 65 -122 94t-154 29q-104 0 -187 -63 t-130.5 -162.5t-65.5 -225.5h561q17 0 28 -11.5t11 -27.5v-16q0 -15 -11 -26t-28 -11h-572v-47q0 -37 4 -107h486q17 0 28 -11.5t11 -27.5v-16q0 -15 -11 -26t-28 -11h-471q36 -178 129 -283.5t225 -105.5q108 0 174 28t144 95q28 24 49 0l49 -55q10 -12 9.5 -28.5 t-11.5 -27.5q-170 -161 -412 -161q-200 0 -341.5 145.5t-182.5 392.5h-113q-15 0 -26 12t-11 27z" />
<glyph unicode="&#x2122;" horiz-adv-x="1552" d="M143 1372v23q0 15 12 27t27 12h391q17 0 28 -11.5t11 -27.5v-23q0 -17 -11 -28t-28 -11h-143v-479q0 -15 -12 -27t-27 -12h-26q-17 0 -28 11.5t-11 27.5v479h-144q-16 0 -27.5 11t-11.5 28zM680 862l106 551q3 12 14.5 21.5t24.5 9.5h9q9 0 20 -7.5t14 -15.5l166 -434 l168 434q3 8 14.5 15.5t20.5 7.5h8q12 0 24 -9.5t15 -21.5l109 -553q3 -19 -8.5 -32t-30.5 -13h-25q-13 0 -24.5 10.5t-14.5 24.5l-69 338l-148 -361q-3 -7 -13.5 -12.5t-19.5 -5.5h-12q-9 0 -20.5 6t-14.5 14l-143 359l-72 -340q-3 -12 -15 -22.5t-24 -10.5h-20 q-20 0 -31 14t-8 33z" />
<glyph unicode="&#x25fc;" horiz-adv-x="942" d="M0 0v942h942v-942h-942z" />
<glyph unicode="&#xfb03;" horiz-adv-x="1810" d="M47 860v41q0 20 13 32.5t32 12.5h152v64q0 203 114 313.5t293 110.5q93 0 172 -29t125 -66q86 115 285 115q103 0 190.5 -37t135.5 -76q12 -7 15 -25t-5 -28l-39 -57q-21 -29 -60 -2q-118 88 -239 88q-100 0 -153.5 -56t-53.5 -167v-148h586q18 0 31.5 -13.5t13.5 -31.5 v-856q0 -19 -13 -32t-32 -13h-62q-18 0 -31.5 13.5t-13.5 31.5v770h-479v-770q0 -19 -14 -32t-33 -13h-59q-19 0 -32.5 13t-13.5 32v770h-479v-770q0 -19 -13 -32t-32 -13h-59q-19 0 -32 13t-13 32v770h-152q-19 0 -32 13t-13 32zM393 946h479v148q0 69 11 116 q-35 33 -102.5 59.5t-133.5 26.5q-119 0 -186.5 -69.5t-67.5 -216.5v-64z" />
<glyph unicode="&#xfb04;" horiz-adv-x="1869" d="M47 860v41q0 20 13 32.5t32 12.5h152v64q0 203 114 313.5t293 110.5q165 0 310 -93q43 53 117 83t171 30q55 0 108 -12t89.5 -29.5t65 -34.5t42.5 -29l13 -12l16 58q4 12 7.5 18t13.5 13.5t24 7.5l27 -2q18 0 31.5 -14t13.5 -32v-1341q0 -19 -13 -32t-32 -13h-60 q-18 0 -31.5 13.5t-13.5 31.5v1124q-4 6 -12.5 16t-37 35.5t-59.5 45t-80 35.5t-99 16q-112 0 -175 -63t-63 -187v-121h281q19 0 32 -12.5t13 -32.5v-43q0 -19 -13 -31t-32 -12h-281v-770q0 -19 -14 -32t-33 -13h-59q-19 0 -32.5 13t-13.5 32v770h-479v-770q0 -19 -13 -32 t-32 -13h-59q-19 0 -32 13t-13 32v770h-152q-19 0 -32 13t-13 32zM393 946h479v125q0 74 17 137q-34 34 -104.5 61t-137.5 27q-119 0 -186.5 -69.5t-67.5 -216.5v-64z" />
</font>
</defs>
</svg>
