<?xml version="1.0" standalone="no"?>
<!DOCTYPE svg PUBLIC "-//W3C//DTD SVG 1.1//EN" "http://www.w3.org/Graphics/SVG/1.1/DTD/svg11.dtd" >
<svg xmlns="http://www.w3.org/2000/svg">
<metadata></metadata>
<defs>
<font id="brandon_textregular_italic" horiz-adv-x="1228" >
<font-face units-per-em="2048" ascent="1434" descent="-614" />
<missing-glyph horiz-adv-x="491" />
<glyph unicode="&#xfb01;" horiz-adv-x="1124" d="M88 -440l170 1253h-127q-18 0 -27 13t-6 32l6 43q3 20 16.5 32.5t31.5 12.5h124l13 78q67 430 383 430q176 0 305 -108q11 -8 11.5 -23.5t-9.5 -30.5l-35 -49q-16 -19 -28 -18t-33 16q-34 25 -53 37t-63 26.5t-93 14.5q-103 0 -157 -78.5t-77 -216.5l-12 -78h547 q17 0 28.5 -14t8.5 -31l-121 -856q-3 -18 -17.5 -31.5t-29.5 -13.5h-70q-16 0 -27 13.5t-8 31.5l109 768h-438l-168 -1253q-3 -19 -17.5 -33t-29.5 -14h-74q-17 0 -26.5 14t-6.5 33z" />
<glyph unicode="&#xfb02;" horiz-adv-x="1161" d="M88 -440l170 1253h-127q-18 0 -27 13t-6 32l6 43q1 19 15.5 32t30.5 13h126l21 125q13 83 41 148.5t65.5 109t86 72t99.5 41t109 12.5q94 0 164 -39.5t101 -77.5l30 76q8 21 37 21h43q14 0 23 -13.5t8 -31.5l-189 -1344q-1 -19 -15.5 -32t-31.5 -13h-71q-15 0 -24.5 13 t-8.5 32l160 1133q-28 56 -89.5 98.5t-138.5 42.5q-205 0 -245 -248l-21 -125h244q17 0 26.5 -12.5t8.5 -32.5l-9 -43q-3 -19 -16 -32t-31 -13h-243l-168 -1253q-3 -19 -17.5 -33t-29.5 -14h-74q-17 0 -26.5 14t-6.5 33z" />
<glyph horiz-adv-x="0" />
<glyph horiz-adv-x="0" />
<glyph horiz-adv-x="682" />
<glyph unicode="&#xd;" horiz-adv-x="0" />
<glyph unicode=" "  horiz-adv-x="491" />
<glyph unicode="&#x09;" horiz-adv-x="491" />
<glyph unicode="&#xa0;" horiz-adv-x="491" />
<glyph unicode="!" horiz-adv-x="524" d="M80 82q0 54 39 92.5t90 38.5q42 0 70 -29.5t28 -72.5q0 -54 -39 -92.5t-92 -38.5q-41 0 -68.5 30t-27.5 72zM213 590l41 571l33 234q1 15 13 27t26 12h110q13 0 23 -12t8 -27l-33 -230l-123 -575q-3 -12 -15 -22.5t-24 -10.5h-28q-12 0 -21.5 10.5t-9.5 22.5z" />
<glyph unicode="&#x22;" horiz-adv-x="665" d="M197 1065l47 330q2 15 14 27t25 12h77q18 0 25.5 -15t-0.5 -37l-100 -325q-4 -12 -16 -21.5t-21 -9.5h-23q-13 0 -21.5 12t-6.5 27zM481 1065l45 330q3 15 15.5 27t25.5 12h76q19 0 27.5 -15t-0.5 -37l-101 -325q-4 -12 -16 -21.5t-23 -9.5h-20q-14 0 -23 12t-6 27z" />
<glyph unicode="#" horiz-adv-x="1064" d="M88 438l2 15q1 17 13 28t26 11h143l93 350h-132q-13 0 -22.5 12t-7.5 27l2 14q3 16 15 27.5t26 11.5h143l125 467q3 12 14 22.5t23 10.5h16q15 0 23 -13t4 -32l-119 -455h281l121 467q3 12 16 22.5t25 10.5h12q17 0 25.5 -13t2.5 -32l-118 -455h127q15 0 23 -12t5 -27 l-2 -14q-2 -16 -12.5 -27.5t-24.5 -11.5h-141l-92 -350h129q14 0 23 -11t6 -28l-2 -15q-2 -15 -13 -27t-24 -12h-146l-98 -366q-3 -13 -15 -23t-26 -10h-12q-17 0 -25.5 13t-3.5 32l96 354h-282l-99 -366q-3 -13 -14.5 -23t-23.5 -10h-13q-18 0 -25.5 13t-2.5 32l94 354 h-129q-15 0 -23.5 12t-5.5 27zM356 492h283l92 350h-280z" />
<glyph unicode="$" d="M154.5 190.5q2.5 11.5 15.5 24.5l41 43q21 21 33.5 24t31.5 -14q18 -23 30 -35.5t44 -41t73 -47t89 -25.5l76 528q-13 9 -39 28q-56 39 -83.5 60t-68 59t-59.5 69.5t-34 77.5t-15 99q0 52 13.5 105.5t45.5 107.5t78 96t117 70.5t157 32.5l11 66q1 17 13 27.5t26 10.5h14 q14 0 23 -10.5t6 -27.5l-11 -66q151 -13 269 -102q7 -6 12.5 -14t4.5 -24t-15 -32l-31 -35q-37 -43 -68 -18q-93 73 -190 86l-76 -535q75 -42 125 -77.5t95 -83.5t67 -106.5t22 -129.5q0 -167 -118 -279.5t-306 -121.5l-28 -211q-3 -18 -16 -27.5t-29 -9.5q-15 0 -26.5 10 t-10.5 27l31 215q-68 7 -130 31t-103 55t-62 51t-33 35q-8 10 -11 16.5t-0.5 18zM444 1059q0 -74 42.5 -130t125.5 -106l70 492q-58 -7 -105 -35t-75 -65.5t-43 -78t-15 -77.5zM594 119q95 11 165 83.5t70 162.5q0 72 -40.5 128t-124.5 113z" />
<glyph unicode="%" horiz-adv-x="1267" d="M174 1141q0 130 84 221.5t207 91.5q89 0 151 -70t62 -170q0 -129 -86.5 -221t-204.5 -92q-86 0 -149.5 70.5t-63.5 169.5zM175.5 17.5q-7.5 17.5 4.5 37.5l824 1358q12 21 32 21h49q20 0 27.5 -18t-4.5 -38l-827 -1358q-10 -20 -33 -20h-45q-20 0 -27.5 17.5zM289 1153 q0 -58 32 -96.5t82 -38.5q61 0 108.5 53t47.5 127q0 56 -31.5 95.5t-78.5 39.5q-64 0 -112 -53.5t-48 -126.5zM631 219q0 130 84 221.5t207 91.5q89 0 151 -69.5t62 -169.5q0 -129 -86.5 -221t-204.5 -92q-86 0 -149.5 70t-63.5 169zM745 231q0 -58 32.5 -96.5t82.5 -38.5 q61 0 108.5 53t47.5 127q0 56 -32 96t-79 40q-63 0 -111.5 -54t-48.5 -127z" />
<glyph unicode="&#x26;" horiz-adv-x="1257" d="M104 303q0 40 8.5 79.5t19 71t32.5 65.5t37.5 56.5t46 52t45.5 43.5t48.5 39.5t43 32t39.5 27.5l-39 53q-88 129 -88 254q0 96 45 181.5t131 140.5t193 55q129 0 208.5 -79.5t79.5 -192.5q0 -34 -7 -67t-16.5 -60t-28 -56t-33.5 -49.5t-41.5 -46t-42.5 -40.5t-46 -37 t-43.5 -32t-43 -30t-36.5 -25l238 -327q40 66 76 166.5t53 199.5q4 28 12.5 34.5t32.5 6.5h68q32 0 26 -47q-17 -117 -66.5 -247t-109.5 -220l150 -192q12 -18 16.5 -29t-1.5 -30t-32 -36l-26 -20q-48 -33 -76 8l-123 168q-7 -8 -20 -21t-56.5 -46.5t-89.5 -59t-115.5 -46.5 t-138.5 -21q-142 0 -236 95.5t-94 227.5zM250 319q0 -93 53.5 -148.5t145.5 -55.5q53 0 105.5 17.5t90 42.5t67.5 50t45 43l15 17l-270 389q-39 -27 -62.5 -44.5t-64.5 -54.5t-64.5 -71t-42 -83.5t-18.5 -101.5zM432 1077q0 -85 78 -190l35 -45q9 6 41 27t50 34t49 37 t49.5 46t38 50t29 59.5t9.5 65.5q0 70 -42.5 121t-119.5 51q-89 0 -153 -79.5t-64 -176.5z" />
<glyph unicode="'" horiz-adv-x="378" d="M197 1065l47 330q2 15 14 27t25 12h77q17 0 24 -14.5t1 -37.5l-100 -325q-4 -12 -16 -21.5t-21 -9.5h-23q-13 0 -21.5 12t-6.5 27z" />
<glyph unicode="(" horiz-adv-x="667" d="M115 426q0 219 35 395.5t91.5 289.5t132.5 190t153 111t159 38q31 3 31 -20l-4 -56q0 -13 -8 -23t-17 -12q-430 -95 -430 -917q0 -197 58 -320t178 -151q9 -2 13.5 -12t0.5 -23l-12 -55q-6 -24 -37 -21q-63 4 -121 37.5t-109.5 99.5t-82.5 182t-31 267z" />
<glyph unicode=")" horiz-adv-x="667" d="M-31 -139l4 55q0 13 7 23t18 12q430 96 430 917q0 196 -58 319.5t-177 151.5q-9 2 -14 12t-1 23l12 56q6 23 37 20q48 -3 95 -23t92.5 -65.5t80 -110.5t55.5 -165t21 -222q0 -219 -35 -395.5t-91.5 -289.5t-132.5 -190t-153 -111t-159 -38q-31 -3 -31 21z" />
<glyph unicode="*" horiz-adv-x="798" d="M209 979q-19 34 20 57l158 99l-135 98q-24 21 0 55l20 29q11 16 26.5 17t23.5 -9l118 -104l21 176q1 15 13 26t26 11h32q14 0 23 -11t6 -26l-26 -174l143 106q28 16 49 -12l12 -25q7 -14 2.5 -29t-18.5 -26l-164 -102l135 -103q10 -10 10.5 -26.5t-8.5 -28.5l-18 -25 q-10 -13 -27 -17t-26 5l-117 104l-21 -172q-1 -15 -13 -26.5t-25 -11.5h-33q-15 0 -23.5 11.5t-5.5 26.5l27 175l-144 -103q-24 -18 -47 12z" />
<glyph unicode="+" d="M242 682l8 57q2 15 14 27t25 12h286l46 324q1 15 14 26t27 11h63q13 0 22 -11t7 -26l-45 -324h286q13 0 22 -12t7 -27l-8 -57q-2 -15 -14 -27t-25 -12h-287l-45 -321q-1 -15 -14 -26t-27 -11h-63q-14 0 -23 11t-8 26l47 321h-287q-13 0 -21.5 12t-6.5 27z" />
<glyph unicode="," horiz-adv-x="485" d="M47 86q0 55 36.5 97t94.5 42q61 0 94 -47t33 -123q0 -220 -192 -397q-19 -19 -33 -2l-33 35q-14 17 6 37q152 143 152 262q0 14 -2 28q-29 -18 -72 -18q-41 0 -62.5 26t-21.5 60z" />
<glyph unicode="-" horiz-adv-x="743" d="M127 487l6 39q3 17 14.5 28t26.5 11h391q15 0 23.5 -11t5.5 -28l-6 -39q-3 -15 -14.5 -25.5t-26.5 -10.5h-389q-15 0 -24.5 10.5t-6.5 25.5z" />
<glyph unicode="." horiz-adv-x="485" d="M47 94q0 63 45.5 107.5t104.5 44.5q49 0 80.5 -34.5t31.5 -84.5q0 -61 -44.5 -105.5t-106.5 -44.5q-47 0 -79 34.5t-32 82.5z" />
<glyph unicode="/" horiz-adv-x="731" d="M49 51l553 1356q12 27 37 27h55q20 0 27.5 -15t-0.5 -37l-551 -1355q-12 -27 -37 -27h-57q-19 0 -26.5 14.5t-0.5 36.5z" />
<glyph unicode="0" horiz-adv-x="1239" d="M158 535q0 275 69 482t202.5 322t315.5 115q174 0 274.5 -148t100.5 -401q0 -277 -67.5 -484.5t-200 -323t-315.5 -115.5q-177 0 -278 149.5t-101 403.5zM322 539q0 -200 58.5 -310t174.5 -110q127 0 218 98.5t137 273t46 408.5q0 199 -57.5 308.5t-175.5 109.5 q-125 0 -216 -98t-138 -273t-47 -407z" />
<glyph unicode="1" horiz-adv-x="675" d="M141 1094q-9 17 6 32l320 293q15 15 35 15h45q13 0 21.5 -12t6.5 -27l-192 -1354q-1 -17 -13 -29t-26 -12h-82q-17 0 -26 11.5t-7 29.5l160 1128h-6l-170 -127q-29 -22 -41 2z" />
<glyph unicode="2" horiz-adv-x="1052" d="M35 41l6 41q3 22 16 35l529 540q237 246 237 424q0 42 -11.5 81t-36 73.5t-69.5 55t-104 20.5q-128 0 -283 -160q-25 -25 -49 0l-41 41q-9 9 -8 26t12 29q185 207 394 207q170 0 265 -100.5t95 -247.5q0 -63 -16 -123.5t-39 -108t-66 -104.5t-79.5 -98t-96.5 -103 l-418 -428v-4h537q15 0 24.5 -12t8.5 -29l-8 -55q-1 -17 -15 -29t-28 -12h-725q-17 0 -25.5 11.5t-5.5 29.5z" />
<glyph unicode="3" horiz-adv-x="1077" d="M58 193q4 15 16 24l59 43q16 10 25 7t22 -17q23 -28 41 -46t51 -43t76 -37.5t94 -12.5q122 0 211.5 78.5t89.5 213.5q0 105 -72 175.5t-216 70.5h-105q-36 0 -31 47l7 52q5 45 47 45h106q155 0 241.5 84t86.5 210q0 102 -59.5 165t-145.5 63q-83 0 -143 -36t-113 -101 q-26 -29 -51 -4l-49 38q-9 11 -5.5 26.5t13.5 29.5q30 38 55.5 63t70 57t105 49t133.5 17q149 0 251 -95t102 -255q0 -83 -42.5 -164.5t-97 -133.5t-108.5 -79v-6q67 -33 125.5 -115.5t58.5 -183.5q0 -188 -132.5 -315t-352.5 -127q-231 0 -359 186q-9 12 -5 27z" />
<glyph unicode="4" horiz-adv-x="1191" d="M39 365l8 57q3 21 16 37l824 968q13 16 23.5 21.5t31.5 5.5h43q14 0 23 -12t6 -29l-133 -958h153q17 0 25 -10.5t6 -26.5l-6 -53q-1 -15 -14.5 -27t-28.5 -12h-152l-41 -285q-3 -17 -15 -29t-26 -12h-80q-15 0 -24 12t-6 29l41 285h-641q-17 0 -26 11.5t-7 27.5zM236 455 h501l105 725h-6l-600 -717v-8z" />
<glyph unicode="5" horiz-adv-x="1083" d="M80.5 193q0.5 15 21.5 32l52 41q14 12 26.5 11t26.5 -23q19 -28 37 -48.5t47.5 -43t71 -35t92.5 -12.5q146 0 245 118t99 277q0 110 -62.5 182t-183.5 72h-291q-27 0 -39.5 22.5t-9.5 51.5l80 557q2 16 13 27.5t28 11.5h577q15 0 24.5 -12t6.5 -27l-10 -62 q-3 -17 -14 -29t-27 -12h-471l-55 -387h210q181 0 281 -97.5t100 -266.5q0 -158 -65 -286t-183.5 -201.5t-267.5 -73.5q-70 0 -131 17.5t-102 46.5t-67.5 55.5t-43.5 54.5q-16 24 -15.5 39z" />
<glyph unicode="6" horiz-adv-x="1110" d="M127 453q0 135 31.5 258t81 215.5t119.5 175t138.5 139t146.5 105t134 75t111 47.5q31 11 41 -20l18 -57q14 -44 -41 -62q-32 -11 -83 -36.5t-121.5 -72.5t-135.5 -103t-124.5 -133.5t-88.5 -158.5q1 0 17.5 10t44.5 23.5t62.5 27.5t79 24t87.5 10q146 0 246 -108.5 t100 -281.5q0 -148 -68 -275.5t-182 -201t-245 -73.5q-94 0 -166 37t-115.5 102.5t-65.5 149.5t-22 184zM276 455q0 -67 13 -125.5t40 -106.5t74.5 -76t110.5 -28q129 0 228.5 114.5t99.5 268.5q0 118 -67 199t-169 81q-34 0 -69.5 -7.5t-64.5 -19.5t-56 -26.5t-47.5 -29.5 t-35.5 -27t-23 -20l-9 -7q-25 -92 -25 -190z" />
<glyph unicode="7" horiz-adv-x="962" d="M110.5 12.5q-6.5 12.5 8.5 44.5l696 1229v6h-606q-15 0 -24 12.5t-7 28.5l8 62q1 15 15 27t28 12h766q13 0 22 -10t9 -23q0 -16 -18 -51l-748 -1317q-11 -22 -20 -27.5t-27 -5.5h-78q-18 0 -24.5 12.5z" />
<glyph unicode="8" horiz-adv-x="1150" d="M113 332q0 77 30 148t77 121t91.5 83.5t85.5 52.5v8q-59 33 -106 110.5t-47 172.5q0 185 132 305.5t322 120.5q157 0 253 -91.5t96 -240.5q0 -71 -24 -135.5t-62 -111t-78.5 -79t-81.5 -51.5l-2 -8q68 -33 126 -118t58 -193q0 -90 -36 -171.5t-99.5 -142.5t-156.5 -96.5 t-202 -35.5q-175 0 -275.5 99t-100.5 253zM274 336q0 -103 66.5 -167.5t165.5 -64.5q132 0 222.5 82.5t90.5 216.5q0 92 -61.5 165.5t-169.5 86.5q-141 -17 -227.5 -109.5t-86.5 -209.5zM401 1026q0 -88 51.5 -144.5t155.5 -68.5q138 14 208.5 93t70.5 198q0 100 -59 161.5 t-154 61.5q-111 0 -192 -85.5t-81 -215.5z" />
<glyph unicode="9" horiz-adv-x="1110" d="M158 909q0 113 40 215t107 174t158 114t190 42q177 0 273 -131t96 -336q0 -135 -31 -258t-80.5 -215.5t-119.5 -175t-138 -139t-146.5 -105.5t-135.5 -76t-113 -49q-28 -11 -39 23l-18 57q-14 42 41 60q32 12 82 37.5t121 73t135.5 103t124.5 133t90 158.5l-17 -10 q-16 -10 -44 -24t-62.5 -28t-79 -24t-86.5 -10q-68 0 -131 28.5t-111 78.5t-77 124t-29 160zM309 936q0 -119 65.5 -200t166.5 -81q48 0 96.5 14t85 34.5t65.5 41t46 34.5l16 14q24 85 24 186q0 67 -13 125t-40 106.5t-75 76.5t-111 28q-129 0 -227.5 -112.5t-98.5 -266.5z " />
<glyph unicode=":" horiz-adv-x="540" d="M76 94q0 63 44 107.5t101 44.5q48 0 79.5 -34t31.5 -81q0 -63 -44.5 -108.5t-103.5 -45.5q-46 0 -77 34.5t-31 82.5zM176 815q0 62 45 107t103 45q46 0 77 -34.5t31 -82.5q0 -62 -43.5 -108t-101.5 -46q-48 0 -79.5 35t-31.5 84z" />
<glyph unicode=";" horiz-adv-x="552" d="M90 86q0 55 36.5 97t94.5 42q61 0 94 -47t33 -123q0 -223 -192 -397q-19 -19 -33 -2l-33 35q-14 17 6 37q148 140 148 262q0 14 -2 28q-29 -18 -68 -18q-41 0 -62.5 26t-21.5 60zM172 815q0 62 44.5 107t102.5 45q47 0 78 -34.5t31 -82.5q0 -62 -43.5 -108t-101.5 -46 q-47 0 -79 35.5t-32 83.5z" />
<glyph unicode="&#x3c;" d="M219 465l2 14q2 16 25 31l688 434q25 15 42.5 4.5t14.5 -37.5l-10 -80q-3 -21 -31 -38l-528 -330l438 -313q10 -6 15.5 -17.5t3.5 -21.5l-13 -78q-3 -24 -24.5 -30t-38.5 7l-567 420q-20 16 -17 35z" />
<glyph unicode="=" d="M262 326l10 63q2 15 14 27t25 12h559q15 0 24 -12t7 -27l-10 -63q-2 -15 -13 -27t-26 -12h-559q-15 0 -24 12t-7 27zM324 758l8 61q3 16 14.5 27.5t26.5 11.5h559q15 0 23.5 -12t5.5 -27l-9 -61q-2 -15 -14 -27t-27 -12h-559q-13 0 -21.5 12t-6.5 27z" />
<glyph unicode="&#x3e;" d="M207 41l10 80q2 24 29 39l530 317l-438 330q-23 19 -21 39l11 65q5 26 26 37t41 -4l566 -434q19 -16 16 -31l-2 -16q-2 -17 -27 -33l-686 -420q-23 -14 -41 -4.5t-14 35.5z" />
<glyph unicode="?" horiz-adv-x="897" d="M201 1212q-25 22 0 62q8 13 19.5 28t43.5 44.5t70 51.5t100.5 39t132.5 17q126 0 206.5 -75t80.5 -195q0 -42 -8 -78.5t-27 -68.5t-35 -55t-47.5 -51t-47.5 -41t-52 -40q-36 -26 -52 -38.5t-39.5 -35.5t-34.5 -45t-15 -49l-13 -84q-3 -20 -15.5 -30.5t-27.5 -10.5h-67 q-14 0 -22 11t-7 28l12 86q4 29 12 54.5t22 48t24.5 38.5t31.5 35.5t31.5 28.5t36 29t33.5 26q9 7 37.5 29t39.5 31.5t31.5 31t29.5 39t16.5 44.5t7.5 57q0 64 -45.5 108.5t-120.5 44.5q-34 0 -66 -8.5t-54 -18.5t-47 -29t-36.5 -30t-31 -32t-23.5 -25q-23 -23 -47 -2z M246 82q0 54 39.5 92.5t91.5 38.5q42 0 69 -29.5t27 -72.5q0 -53 -38.5 -92t-90.5 -39q-42 0 -70 30t-28 72z" />
<glyph unicode="@" horiz-adv-x="1853" d="M96 295q0 176 42 344.5t127 316t203 258.5t280 175.5t348 64.5q318 0 499 -182t181 -488q0 -78 -12 -159.5t-35.5 -166t-64 -158.5t-92.5 -132.5t-125.5 -92.5t-158.5 -34q-81 0 -125.5 46.5t-58.5 113.5h-2q-39 -66 -114.5 -113t-158.5 -47q-125 0 -199.5 91t-74.5 247 q0 69 15.5 140t49 140t80.5 122.5t115 86.5t148 33q34 0 66.5 -9.5t54.5 -23t38.5 -27t24.5 -23.5l8 -9l14 41q7 21 14.5 26t28.5 5h39q12 0 21 -12t8 -27l-59 -436q-17 -124 8 -185t82 -61q71 0 130.5 45.5t96.5 114t62.5 154.5t36 163t10.5 143q0 126 -35 227.5 t-103.5 176t-177 115t-248.5 40.5q-156 0 -294.5 -58t-240 -158.5t-175.5 -231.5t-111 -280t-37 -302q0 -228 102 -395t279 -256q19 -11 21.5 -23t-6.5 -28l-29 -56q-19 -32 -47 -16q-208 105 -328.5 301t-120.5 459zM694 381q0 -99 43 -154t109 -55q80 0 147 74t84 143 l37 252q-1 5 -4.5 13.5t-16.5 29.5t-29.5 37t-47 29.5t-66.5 13.5q-99 0 -177.5 -104t-78.5 -279z" />
<glyph unicode="A" horiz-adv-x="1259" d="M-46 16q-3 7 -4 14q0 11 7 23l756 1379q11 22 35 22h18q22 0 29 -22l364 -1379q1 -6 1 -11q0 -14 -8 -26q-12 -16 -32 -16h-86q-25 0 -30 23l-82 337h-639l-174 -337q-14 -23 -39 -23h-88q-20 0 -28 16zM358 487h525l-162 672h-12z" />
<glyph unicode="B" horiz-adv-x="1185" d="M119 39l190 1356q3 16 15 27.5t26 11.5h408q148 0 238.5 -94t90.5 -232q0 -139 -63.5 -234.5t-163.5 -146.5v-6q73 -39 123.5 -108t50.5 -171q0 -192 -126 -317t-335 -125h-423q-15 0 -24 12q-7 10 -7 22v5zM285 137h317q106 0 183 85.5t77 205.5q0 95 -62.5 158 t-156.5 63h-287zM379 791h285q113 0 181 82.5t68 218.5q0 92 -46.5 146t-133.5 54h-282z" />
<glyph unicode="C" horiz-adv-x="1327" d="M125 616q0 228 100.5 420t279 305t396.5 113q133 0 232.5 -47.5t187.5 -142.5q9 -8 9 -23v-6q-2 -19 -15 -29l-60 -47q-15 -12 -26.5 -9.5t-26.5 19.5q-60 66 -145 102t-176 36q-114 0 -222.5 -55t-188.5 -146t-128.5 -215.5t-48.5 -255.5q0 -135 52 -250t150 -185.5 t220 -70.5q108 0 188 39.5t168 120.5q25 25 45 6l64 -62q10 -14 6.5 -28.5t-15.5 -26.5q-207 -198 -477 -198q-151 0 -282 85t-209 232t-78 319z" />
<glyph unicode="D" horiz-adv-x="1406" d="M119 39l190 1356q1 15 13 27t26 12h416q156 0 285 -89.5t199.5 -231.5t70.5 -302q0 -164 -58 -313.5t-158 -259t-241 -174t-299 -64.5h-418q-13 0 -21 12q-6 9 -6 19q0 4 1 8zM289 141h268q122 0 230.5 48t189 133.5t127.5 211t47 273.5q0 214 -118.5 350.5t-311.5 136.5 h-270z" />
<glyph unicode="E" horiz-adv-x="1093" d="M119 39l190 1356q1 15 13 27t26 12h731q15 0 23 -12q6 -9 7 -19q0 -4 -1 -8l-8 -60q-2 -15 -14 -27t-27 -12h-606l-72 -499h518q14 0 23 -12t6 -27l-8 -60q-1 -17 -13 -28t-26 -11h-519l-73 -522h608q15 0 23.5 -12t5.5 -27l-8 -59q-2 -15 -14 -27t-27 -12h-730 q-15 0 -23 12q-6 9 -6 19q0 4 1 8z" />
<glyph unicode="F" horiz-adv-x="1060" d="M119 39l190 1356q1 15 13 27t26 12h731q15 0 23 -12q6 -9 7 -19q0 -4 -1 -8l-8 -60q-2 -15 -14 -27t-27 -12h-606l-80 -561h518q14 0 23 -12t6 -27l-9 -59q-1 -15 -14 -27t-27 -12h-516l-80 -559q-2 -15 -13.5 -27t-24.5 -12h-89q-15 0 -23 12q-6 9 -6 19q0 4 1 8z" />
<glyph unicode="G" horiz-adv-x="1386" d="M125 616q0 228 101 420t279.5 305t395.5 113q134 0 234 -48t188 -142q9 -8 9 -23v-6q-2 -19 -15 -29l-72 -59q-15 -12 -26.5 -9.5t-26.5 19.5q-55 63 -138 106.5t-169 43.5q-114 0 -222.5 -54t-188.5 -144t-128.5 -213.5t-48.5 -254.5q0 -136 51.5 -252t149 -187 t219.5 -71q52 0 104 9t89.5 21.5t67.5 25t46.5 21.5t17.5 9l41 293h-202q-15 0 -23.5 11t-5.5 26l10 69q1 17 13.5 28t27.5 11h324q12 0 20.5 -10.5t7.5 -23.5l-65 -478q-3 -23 -21 -32q-8 -5 -24 -14t-66 -31.5t-102.5 -40t-130 -31.5t-152.5 -14q-155 0 -286 85 t-207 231.5t-76 319.5z" />
<glyph unicode="H" horiz-adv-x="1429" d="M119 39l190 1356q3 15 15.5 27t25.5 12h88q15 0 24 -12t7 -27l-86 -598h725l84 598q3 16 14.5 27.5t26.5 11.5h88q14 0 23 -12q7 -9 7 -20q0 -4 -1 -7l-191 -1356q-1 -15 -13 -27t-26 -12h-88q-15 0 -24 12t-7 27l89 620h-725l-89 -620q-2 -16 -12.5 -27.5t-25.5 -11.5 h-88q-13 0 -23 12t-8 27z" />
<glyph unicode="I" horiz-adv-x="546" d="M119 39l190 1356q1 15 13 27t26 12h90q14 0 23 -12q7 -9 7 -20q0 -4 -1 -7l-191 -1356q-2 -15 -13.5 -27t-24.5 -12h-91q-15 0 -23 12q-6 9 -6 19q0 4 1 8z" />
<glyph unicode="J" horiz-adv-x="890" d="M-14 158q3 15 14 24l45 41q14 12 28 12q19 0 36 -24q76 -92 174 -92q37 0 72 14t69 44t59.5 87t36.5 135l142 996q2 15 13.5 27t26.5 12h89q15 0 23 -12q6 -9 6 -19q0 -4 -1 -8l-139 -992q-59 -423 -408 -423q-55 0 -104.5 16t-84 42t-56 47.5t-35.5 41.5q-6 11 -6 23v8z " />
<glyph unicode="K" horiz-adv-x="1140" d="M119 49l188 1335q3 21 17 35.5t34 14.5h70q19 0 30.5 -15t8.5 -35l-84 -583l645 612q6 8 18 14.5t19 6.5h106q27 0 37 -22q3 -6 2 -12q0 -16 -16 -32l-670 -631l488 -684q12 -11 2.5 -32t-37.5 -21h-98q-9 0 -19 4.5t-12 9.5l-479 682l-90 -647q-3 -20 -18 -34.5 t-34 -14.5h-69q-20 0 -30 14q-9 12 -9 28v7z" />
<glyph unicode="L" horiz-adv-x="940" d="M119 39l190 1356q3 16 15 27.5t26 11.5h88q13 0 23 -12t8 -27l-178 -1258h522q13 0 22 -12q7 -10 7 -22v-5l-8 -59q-3 -16 -14.5 -27.5t-26.5 -11.5h-643q-15 0 -24 12q-7 10 -7 22v5z" />
<glyph unicode="M" horiz-adv-x="1632" d="M37 49l428 1376q9 29 43 29h29q32 0 36 -22l199 -1125h4l518 1125q11 22 39 22h29q15 0 26 -8.5t11 -20.5l45 -1376q0 -22 -12 -35.5t-35 -13.5h-72q-18 0 -27.5 8.5t-9.5 20.5l-20 1024h-2l-482 -1051q-11 -22 -39 -22h-26q-33 0 -37 22l-188 1069h-2l-310 -1042 q-8 -29 -43 -29h-71q-22 0 -30 14q-4 8 -4 18q0 8 3 17z" />
<glyph unicode="N" horiz-adv-x="1452" d="M119 39l192 1378q2 15 15 26t30 11h31q19 0 31 -18l649 -1131h2l154 1090q2 15 15.5 27t31.5 12h65q17 0 27 -12q8 -10 8 -22v-5l-194 -1379q-1 -15 -15 -25.5t-31 -10.5h-30q-19 0 -31 18l-651 1151h-4l-150 -1110q-2 -15 -16 -27t-31 -12h-65q-17 0 -26 12q-7 9 -7 21 v6z" />
<glyph unicode="O" horiz-adv-x="1558" d="M121 606q0 168 64 325.5t169.5 271.5t248 182.5t294.5 68.5q161 0 293.5 -82t208.5 -226t76 -319q0 -170 -63 -326.5t-167.5 -270.5t-248 -182t-298.5 -68q-162 0 -294 81.5t-207.5 225.5t-75.5 319zM268 623q0 -214 126 -357t321 -143q155 0 296.5 94t228.5 253.5 t87 338.5q0 105 -33.5 197.5t-92 159.5t-141.5 106t-179 39q-154 0 -296 -95t-229.5 -255t-87.5 -338z" />
<glyph unicode="P" horiz-adv-x="1138" d="M119 39l190 1356q3 16 15 27.5t26 11.5h412q103 0 185 -56t125.5 -146t43.5 -194q0 -222 -138 -370t-343 -148h-291l-68 -481q-3 -15 -15 -27t-25 -12h-86q-15 0 -24 12q-7 10 -7 22v5zM365 668h280q137 0 225 100.5t88 255.5q0 110 -62 182t-165 72h-280z" />
<glyph unicode="Q" horiz-adv-x="1556" d="M121 604q0 119 36 241t105 230.5t161.5 193.5t215.5 135t256 50q162 0 295 -82.5t209 -227t76 -319.5q0 -160 -58 -312t-171.5 -278t-266.5 -198l162 -381q10 -22 -2.5 -42t-42.5 -20h-86q-26 0 -39 33l-140 363q-54 -10 -135 -10q-120 0 -226.5 48t-183 130.5 t-121 198.5t-44.5 247zM268 618q0 -212 125.5 -353.5t319.5 -141.5q164 0 307.5 101t225 258.5t81.5 324.5q0 140 -57 255t-159.5 182t-231.5 67q-125 0 -240 -61t-195 -159t-128 -223t-48 -250z" />
<glyph unicode="R" horiz-adv-x="1245" d="M119 39l190 1356q1 15 13 27t26 12h461q165 0 268 -116t103 -284q0 -151 -93.5 -280t-242.5 -176l178 -519q8 -21 -2.5 -40t-32.5 -19h-82q-23 0 -34 8.5t-17 30.5l-162 522h-344l-74 -522q-2 -15 -13.5 -27t-24.5 -12h-89q-15 0 -23 12q-6 9 -6 19q0 4 1 8zM371 696h334 q130 0 221.5 98t91.5 238q0 104 -65.5 178t-164.5 74h-333z" />
<glyph unicode="S" horiz-adv-x="1021" d="M66 156q-13 13 -13 27q0 16 17 32l32 35q20 20 33 23t33 -13q3 -3 30.5 -29t38 -34t40.5 -28t53.5 -28t61.5 -16t79 -8q107 0 182.5 67t75.5 181q0 91 -62.5 156.5t-203.5 146.5q-68 39 -113 72t-85 77.5t-58.5 99.5t-18.5 123q0 55 13.5 109.5t47 110.5t82.5 98t127 69 t175 27q181 0 317 -104q17 -13 17 -32q0 -17 -15 -38l-22 -33q-19 -27 -41 -27q-13 0 -27 9q-127 88 -244 88q-124 0 -199 -80t-75 -178q0 -82 52 -143t155 -117q67 -36 112.5 -64t93.5 -67.5t76 -79t46 -92.5t18 -115q0 -175 -120 -288t-328 -113q-72 0 -135.5 17.5 t-113.5 50t-76 54.5t-58 54z" />
<glyph unicode="T" horiz-adv-x="974" d="M166 1335l8 60q2 15 14 27t25 12h786q15 0 23 -12q6 -9 7 -19q0 -4 -1 -8l-8 -60q-2 -15 -14 -27t-27 -12h-313l-177 -1257q-3 -15 -15 -27t-25 -12h-87q-13 0 -22.5 12t-7.5 27l176 1257h-313q-15 0 -23 12q-6 9 -7 19q0 4 1 8z" />
<glyph unicode="U" horiz-adv-x="1347" d="M166 416q0 42 6 88l123 891q3 15 15.5 27t25.5 12h88q15 0 23.5 -12t5.5 -27l-121 -879q-6 -44 -6 -82q0 -142 74 -225.5t208 -83.5q154 0 261.5 109.5t131.5 277.5l123 883q2 15 14 27t25 12h88q14 0 23 -12q7 -9 7 -20q0 -4 -1 -7l-123 -891q-33 -241 -179.5 -382.5 t-387.5 -141.5q-188 0 -306 120t-118 316z" />
<glyph unicode="V" horiz-adv-x="1255" d="M135 1380q-1 6 -1 12q0 14 8 26q12 16 32 16h84q11 0 19 -7.5t10 -15.5l282 -1139h9l602 1139q9 23 34 23h101q21 0 27 -17q2 -6 2 -13q0 -11 -7 -24l-755 -1378q-11 -22 -35 -22h-19q-19 0 -26 22z" />
<glyph unicode="W" horiz-adv-x="1675" d="M186 1384q-1 4 -1 8q-1 16 9 28q12 14 31 14h86q11 0 20 -9t11 -20l96 -1057h6l459 1084q9 22 35 22h33q24 0 28 -22l158 -1084h6l391 1057q5 11 16 20t21 9h99q20 0 27 -14q3 -7 3 -15q0 -9 -4 -21l-542 -1376q-10 -28 -37 -28h-29q-25 0 -29 22l-166 1104h-8 l-471 -1104q-9 -22 -35 -22h-28q-12 0 -20.5 8t-10.5 20z" />
<glyph unicode="X" horiz-adv-x="1107" d="M-4 16q-3 5 -3 11q0 11 9 24l475 684l-274 651q-8 20 2 34t33 14h98q21 0 29 -19l219 -555h2l368 555q13 19 35 19h113q22 0 30 -17q3 -6 3 -12q0 -12 -9 -25l-452 -645l280 -684q9 -22 0 -36.5t-32 -14.5h-101q-22 0 -28 18l-226 590h-4l-397 -590q-11 -18 -35 -18h-102 q-25 0 -33 16z" />
<glyph unicode="Y" horiz-adv-x="1097" d="M132 1418q9 16 30 16h94q20 0 29 -19l284 -584h4l455 584q14 19 33 19h98q23 0 29 -20q2 -6 2 -12q0 -14 -10 -28l-541 -682l-92 -653q-1 -15 -14 -27t-27 -12h-86q-15 0 -24 12t-7 27l92 651l-348 694q-5 10 -5 19q0 8 4 15z" />
<glyph unicode="Z" horiz-adv-x="1003" d="M-12 39l2 16q3 20 14 37l813 1192v6h-565q-14 0 -24 12t-7 27l10 66q3 15 15.5 27t25.5 12h750q13 0 21 -9t8 -20q0 -27 -17 -53l-819 -1205v-4h588q15 0 24.5 -12t6.5 -27l-11 -65q-3 -16 -15 -27.5t-26 -11.5h-766q-14 0 -22 12q-7 10 -6 21v6z" />
<glyph unicode="[" horiz-adv-x="651" d="M18 -449l261 1844q2 15 13.5 27t24.5 12h357q13 0 21.5 -12t6.5 -27l-6 -52q-1 -16 -14 -27t-27 -11h-252l-233 -1663h252q13 0 22 -11t7 -26l-7 -54q-1 -15 -14 -26.5t-27 -11.5h-354q-14 0 -23 11.5t-8 26.5z" />
<glyph unicode="\" horiz-adv-x="741" d="M238 1382q-3 22 8 37t30 15h66q12 0 20.5 -8t10.5 -19l170 -1356q3 -21 -9.5 -36t-31.5 -15h-68q-9 0 -18 8.5t-10 18.5z" />
<glyph unicode="]" horiz-adv-x="653" d="M-82 -449l8 54q3 15 15 26t26 11h250l234 1663h-250q-14 0 -24 11t-7 27l8 52q3 15 14.5 27t24.5 12h356q13 0 22 -12t7 -27l-258 -1844q-3 -15 -15.5 -26.5t-25.5 -11.5h-354q-14 0 -24 11.5t-7 26.5z" />
<glyph unicode="^" horiz-adv-x="966" d="M105 846.5q2 13.5 12 25.5l452 570q16 20 35 20h10q21 0 29 -20l287 -580q9 -19 -0.5 -33t-32.5 -14h-76q-21 0 -30 23l-205 426h-8l-326 -426q-18 -23 -37 -23h-82q-15 0 -22.5 9t-5.5 22.5z" />
<glyph unicode="_" horiz-adv-x="1015" d="M88 -92l4 33q1 17 13.5 28t27.5 11h563q14 0 22 -11t7 -28l-4 -33q-1 -15 -13.5 -26t-27.5 -11h-563q-15 0 -23 11t-6 26z" />
<glyph unicode="`" horiz-adv-x="557" d="M188 1331l43 70q8 12 25.5 12.5t24.5 -6.5l256 -172q8 -5 10.5 -16t-4.5 -23l-25 -41q-7 -12 -16.5 -12.5t-28.5 8.5l-270 131q-35 17 -15 49z" />
<glyph unicode="a" horiz-adv-x="1050" d="M88 395q0 169 62 300.5t166.5 201.5t232.5 70q43 0 82.5 -10.5t66 -25.5t47 -30.5t29.5 -26.5l10 -10l31 60q8 22 31 22h47q21 0 27 -8q5 -6 4 -21v-10l-103 -872q-3 -35 -41 -35h-47q-27 0 -31 35l-8 59q-1 0 -15 -12t-39 -29t-57.5 -34.5t-78 -29.5t-92.5 -12 q-139 0 -231.5 122t-92.5 296zM242 395q0 -70 23 -133t72.5 -106t115.5 -43q43 0 83.5 16t68 38t49 44.5t32.5 38.5l10 16l56 453q-3 5 -8 12.5t-24 26.5t-41.5 34t-60 27t-79.5 12q-54 0 -105.5 -26.5t-95 -78t-70 -137.5t-26.5 -194z" />
<glyph unicode="b" horiz-adv-x="1056" d="M86 45l190 1344q1 18 14.5 31.5t28.5 13.5h80q16 0 27 -13.5t8 -31.5l-69 -476q2 0 13.5 5.5t31 13.5t45.5 16t63 13.5t76 5.5q149 0 246.5 -120.5t97.5 -297.5q0 -159 -60 -290t-166 -206.5t-237 -75.5q-45 0 -87 12.5t-70 30.5t-49 36.5t-31 31.5l-9 12l-22 -61 q-14 -39 -43 -39h-43q-17 0 -27 13q-8 10 -9 24q0 4 1 8zM272 270q3 -6 8 -17t23.5 -38t40 -47.5t58 -37.5t77.5 -17q126 0 215.5 121.5t89.5 291.5q0 124 -65.5 214.5t-165.5 90.5q-53 0 -106.5 -17.5t-80.5 -34.5l-28 -17z" />
<glyph unicode="c" horiz-adv-x="958" d="M86 401q0 122 39.5 228t106.5 180t158.5 116t193.5 42q207 0 297 -156q5 -11 5 -21q0 -22 -22 -40l-43 -37q-18 -13 -33.5 -9t-25.5 21q-66 106 -180 106q-134 0 -235 -114t-101 -295q0 -128 62.5 -218.5t168.5 -90.5q127 0 223 143q15 24 34 24q13 0 28 -10l49 -34 q14 -9 14 -26q0 -15 -12 -36q-48 -84 -142 -140.5t-212 -56.5q-160 0 -266.5 121t-106.5 303z" />
<glyph unicode="d" horiz-adv-x="1056" d="M86 395q0 157 62 288t173 207.5t248 76.5q36 0 71 -6t60 -15t44 -18t30 -15t12 -6l68 482q7 45 45 45h72q17 0 28 -13q9 -11 9 -26v-6l-189 -1354q-6 -35 -43 -35h-47q-27 0 -31 35l-8 59l-14 -12q-14 -12 -39 -29t-57.5 -34.5t-78.5 -29.5t-93 -12q-139 0 -230.5 122 t-91.5 296zM242 412q0 -79 22 -145t70 -110t115 -44q39 0 79 16.5t69 40.5t53 47.5t36 40.5l12 16l66 498q-9 7 -24.5 16.5t-67 26t-105.5 16.5q-87 0 -162.5 -57.5t-119 -154t-43.5 -207.5z" />
<glyph unicode="e" horiz-adv-x="946" d="M86 395q0 154 61 284t175.5 209t257.5 79q126 0 206 -69t80 -177q0 -139 -134.5 -223t-377.5 -84q-60 0 -131 6q-1 -15 -1 -30q0 -104 56 -185q64 -92 179 -92q43 0 84.5 14.5t64 29t58.5 40.5q13 9 25 9q18 0 34 -22l27 -41q11 -12 9.5 -26t-24.5 -31 q-54 -43 -132.5 -76t-160.5 -33q-106 0 -188.5 57.5t-125 152t-42.5 208.5zM242 543q67 -6 129 -6q166 0 256 46t90 130q0 50 -40 85.5t-108 35.5q-114 0 -209.5 -88.5t-117.5 -202.5z" />
<glyph unicode="f" horiz-adv-x="737" d="M92 858l6 43q10 45 45 45h156l20 152q24 177 107 266.5t233 89.5q136 0 224 -92q10 -10 10 -26t-8 -27l-37 -49q-13 -18 -28 -18q-14 0 -29 15q-66 62 -144 62q-80 0 -121 -55t-55 -166l-20 -152h245q18 0 29 -12.5t8 -32.5l-8 -43q-2 -19 -15 -32t-32 -13h-246 l-174 -1253q-3 -19 -17.5 -33t-29.5 -14h-70q-17 0 -27.5 14t-7.5 33l175 1253h-152q-18 0 -29 13q-8 11 -8 26v6z" />
<glyph unicode="g" horiz-adv-x="1046" d="M66 -279q-11 14 -11 27q0 14 13 27l43 43q28 28 53 0q47 -55 75 -76q70 -53 162 -53q95 0 165 82.5t93 269.5l9 65h-11q-44 -53 -114 -91t-152 -38q-127 0 -218 104t-91 275q0 139 41.5 257t109.5 194t152 118t172 42q46 0 86.5 -12.5t65.5 -30.5t43.5 -35.5t25.5 -30.5 l8 -12l29 78q9 22 35 22h49q15 0 23 -12q7 -10 7 -23q0 -5 -1 -10l-121 -850q-19 -135 -60 -234t-98 -156t-122.5 -83.5t-141.5 -26.5q-54 0 -104.5 16t-84 35.5t-64.5 47.5t-43 42t-23 29zM229 373q0 -115 57.5 -187.5t133.5 -72.5q64 0 128 46.5t102.5 103.5t51.5 104 l46 315q-2 6 -6 16t-21 36t-37.5 45.5t-56.5 35.5t-78 16q-53 0 -109 -32.5t-103 -89t-77.5 -145.5t-30.5 -191z" />
<glyph unicode="h" horiz-adv-x="1040" d="M86 45l190 1344q1 18 14.5 31.5t28.5 13.5h74q15 0 25.5 -13.5t9.5 -31.5l-78 -539q1 1 11 10t17 14.5t20.5 16t26.5 18t30.5 17t36.5 16.5t40.5 13t46 9t50.5 3q265 0 264 -289q0 -53 -8 -115l-74 -518q-1 -18 -16 -31.5t-31 -13.5h-72q-17 0 -27.5 13t-7.5 32l76 520 q7 49 7 89q0 177 -144 177q-43 0 -85 -14t-73 -34.5t-55 -40.5t-37 -34l-14 -14l-94 -649q-1 -19 -16 -32t-34 -13h-67q-17 0 -27 13q-8 10 -9 24q0 4 1 8z" />
<glyph unicode="i" horiz-adv-x="473" d="M86 45l119 856q2 18 15 31.5t32 13.5h74q15 0 24 -14t6 -31l-118 -856q-1 -18 -16.5 -31.5t-33.5 -13.5h-67q-17 0 -27 13q-8 10 -9 24q0 4 1 8zM221 1286q0 53 40 91t91 38q41 0 69 -27.5t28 -68.5q0 -52 -37.5 -90.5t-89.5 -38.5q-44 0 -72.5 28t-28.5 68z" />
<glyph unicode="j" horiz-adv-x="475" d="M-160 -418q-1 7 -1 13q0 30 38 43q55 20 88 43t60 73t38 129l144 1018q3 20 17.5 32.5t33.5 12.5h61q18 0 30 -12.5t9 -32.5l-141 -1003q-28 -189 -111 -284t-212 -122q-5 -1 -10 -1q-24 0 -29 26zM223 1286q0 53 40 91t91 38q41 0 69 -27.5t28 -68.5q0 -52 -37.5 -90.5 t-89.5 -38.5q-44 0 -72.5 28t-28.5 68z" />
<glyph unicode="k" horiz-adv-x="937" d="M86 45l190 1344q3 19 15.5 32t27.5 13h74q16 0 27 -13.5t8 -31.5l-109 -801l394 330q37 28 53 28h121q25 0 25 -26q0 -21 -15 -31l-444 -377l340 -453q11 -12 2.5 -35.5t-33.5 -23.5h-92q-26 0 -39 18l-326 457l-67 -430q-3 -19 -16.5 -32t-28.5 -13h-72q-17 0 -27 13 q-8 10 -9 24q0 4 1 8z" />
<glyph unicode="l" horiz-adv-x="491" d="M94 45l191 1344q3 18 17.5 31.5t29.5 13.5h69q16 0 27 -14q9 -11 8 -23v-8l-190 -1344q-3 -19 -16.5 -32t-28.5 -13h-72q-17 0 -27 13q-8 10 -9 24q0 4 1 8z" />
<glyph unicode="m" horiz-adv-x="1562" d="M86 45l119 856q2 19 13.5 32t33.5 13h41q25 0 31 -28l10 -72q1 0 14 12.5t36.5 30t54 35.5t76 30.5t93.5 12.5q152 0 223 -146l13 13t25 23t34.5 28t46.5 30t55 25.5t67 19.5t75 7q170 1 228 -103q40 -71 40 -187q0 -52 -8 -112l-72 -520q-1 -19 -15.5 -32t-31.5 -13h-69 q-18 0 -28.5 13t-8.5 32l71 520q7 50 7 90q0 68 -20 110q-32 66 -122 66q-28 0 -55 -6t-50.5 -17t-42.5 -22t-37.5 -27.5t-29 -26t-24 -24t-15.5 -16.5q1 -12 1 -28q0 -39 -7 -99l-70 -520q-1 -19 -15.5 -32t-31.5 -13h-71q-16 0 -26.5 13.5t-6.5 31.5l68 520q6 47 6 85 q0 74 -22 116q-33 64 -124 65q-41 0 -80 -14.5t-66 -34.5t-48 -40.5t-33 -35.5l-12 -14l-88 -647q-1 -18 -16.5 -31.5t-33.5 -13.5h-67q-17 0 -27 13q-8 10 -9 24q0 4 1 8z" />
<glyph unicode="n" horiz-adv-x="1042" d="M86 45l119 856q2 19 14 32t33 13h41q25 0 31 -28l10 -72l15 12q15 13 41 30.5t60.5 35.5t82 30.5t96.5 12.5q266 0 266 -292q0 -51 -8 -110l-76 -520q-1 -18 -16 -31.5t-31 -13.5h-72q-17 0 -27.5 13t-7.5 32l76 520q7 49 7 89q0 177 -144 177q-43 0 -85.5 -14 t-73.5 -33.5t-55 -39.5t-38 -34l-14 -14l-92 -651q-2 -19 -17 -32t-35 -13h-65q-17 0 -27 13q-8 10 -9 24q0 4 1 8z" />
<glyph unicode="o" horiz-adv-x="1062" d="M84 406q0 150 66 279t180.5 205.5t249.5 76.5q150 0 258 -125t108 -299q0 -152 -65.5 -282t-180 -207t-251.5 -77q-150 0 -257.5 127t-107.5 302zM227 418q0 -130 65 -217.5t169 -87.5q135 0 237.5 123.5t102.5 293.5q0 127 -65.5 214t-168.5 87q-135 0 -237.5 -121.5 t-102.5 -291.5z" />
<glyph unicode="p" horiz-adv-x="1058" d="M18 -440l189 1341q8 45 47 45h47q26 0 31 -31l8 -45l12 10q11 10 32.5 24t51 28.5t74.5 24.5t94 10q147 0 241.5 -123.5t94.5 -296.5q0 -157 -61 -287.5t-171.5 -206.5t-248.5 -76q-36 0 -71 7.5t-60 18t-44 21t-30 18t-12 7.5l-70 -489q-2 -19 -15.5 -33t-31.5 -14h-70 q-15 0 -26.5 14.5t-10.5 32.5zM264 201q3 -4 9 -9.5t26 -21t41.5 -27t54 -21t64.5 -9.5q136 0 231.5 116.5t95.5 294.5q0 133 -56.5 220t-158.5 87q-37 0 -74.5 -11.5t-64.5 -28.5t-48.5 -34t-32.5 -29l-11 -11z" />
<glyph unicode="q" horiz-adv-x="1056" d="M86 397q0 154 58.5 283.5t167.5 208t247 78.5q43 0 82.5 -10t66.5 -24.5t47 -28.5t31 -24l11 -10l22 43q18 33 45 33h41q36 0 36 -34q0 -5 -1 -11l-188 -1341q-1 -18 -16 -32.5t-31 -14.5h-70q-19 0 -29.5 14t-7.5 33l70 489q-27 -25 -90.5 -48.5t-149.5 -23.5 q-148 0 -245 121.5t-97 298.5zM242 408q0 -130 58 -212.5t167 -82.5q50 0 104.5 21t83.5 42l29 21l78 532l-6 5q-5 6 -14.5 15t-22.5 20t-30.5 22t-36.5 20t-43 14.5t-48 5.5q-137 0 -228 -124t-91 -299z" />
<glyph unicode="r" horiz-adv-x="741" d="M86 45l119 856q2 19 14 32t33 13h41q25 0 31 -33l10 -67q41 47 108 84t156 37q76 0 123 -23q20 -8 20 -28q0 -10 -6 -23l-28 -64q-8 -20 -23 -22t-31 6q-49 18 -96 18q-68 0 -132 -44t-99 -89l-88 -653q-5 -19 -20 -32t-34 -13h-63q-17 0 -27 13q-8 10 -9 24q0 4 1 8z " />
<glyph unicode="s" horiz-adv-x="784" d="M41 100v6q0 12 6 23l35 53q9 15 25.5 16.5t31.5 -10.5q91 -75 195 -75q66 0 110.5 39.5t44.5 97.5q0 47 -37.5 87t-121.5 93q-42 26 -60.5 38.5t-52.5 40t-49.5 50t-29 57.5t-13.5 74q0 47 17.5 94t53 89t98 68t142.5 26q144 0 232 -70q17 -15 17 -35q0 -15 -9 -33 l-21 -38q-13 -23 -33 -23q-13 0 -30 10q-83 53 -170 53q-71 0 -107 -36.5t-36 -85.5q0 -24 9.5 -45t32.5 -41t40 -32t53 -34q39 -25 60.5 -39.5t53 -38.5t49 -44t35.5 -47t25.5 -58t7.5 -66q0 -117 -87 -202t-243 -85q-143 0 -264 101q-8 8 -10 22z" />
<glyph unicode="t" horiz-adv-x="727" d="M96 858l8 43q13 45 46 45h112l35 262q3 19 16.5 31t30.5 14l74 4h4q14 0 22 -12q10 -14 7 -33l-37 -266h241q35 0 35 -39v-6l-6 -43q-1 -19 -15.5 -32t-31.5 -13h-244l-84 -584q-2 -18 -2 -33q1 -38 15 -53q20 -22 61 -22q32 0 76.5 21.5t72.5 43.5q13 11 24 11 q18 0 32 -29l22 -51q7 -23 1.5 -35t-25.5 -27q-39 -30 -103.5 -54t-132.5 -24q-108 0 -158 73q-38 55 -38 134q0 25 4 52l82 577h-107q-19 0 -29 13q-8 10 -9 24q0 4 1 8z" />
<glyph unicode="u" horiz-adv-x="1015" d="M121 369l72 532q3 17 17.5 31t29.5 14h71q17 0 28 -13.5t9 -31.5l-74 -534q-8 -55 -8 -97q0 -62 18 -98q30 -58 126 -59q30 0 59.5 8.5t53 22t44.5 30t36 32.5t26.5 29.5t17.5 22.5l6 8l92 635q2 17 16.5 31t31.5 14h67q17 0 28 -14q9 -11 9 -26v-5l-121 -856 q-2 -19 -14.5 -32t-32.5 -13h-41q-16 0 -23 10t-10 31l-8 59l-7 -8q-8 -8 -19.5 -18.5t-28.5 -23.5t-40 -26t-49.5 -23.5t-60 -17t-69.5 -6.5q-165 0 -223 99q-39 66 -39 175q0 54 10 118z" />
<glyph unicode="v" horiz-adv-x="929" d="M104 903q-3 9 -3 16q0 27 38 27h72q32 0 39 -35l162 -663h4l356 672q13 26 49 26h66q26 0 33 -16q2 -5 2 -11q0 -12 -9 -26l-485 -891q-14 -25 -39 -25h-12q-13 0 -22 7.5t-11 17.5z" />
<glyph unicode="w" horiz-adv-x="1341" d="M129 907q-1 5 -1 9q0 30 38 30h72q34 0 38 -33l70 -604h6l332 637q12 25 41 25h12q11 0 20 -7.5t11 -17.5l137 -637h6l242 604q14 33 47 33h60q38 0 38 -26q0 -9 -4 -21l-364 -897q-14 -25 -39 -25h-12q-10 0 -20.5 8t-12.5 17l-150 692h-6l-358 -692q-12 -25 -39 -25 h-10q-11 0 -21.5 7.5t-11.5 17.5z" />
<glyph unicode="x" horiz-adv-x="911" d="M2 19q-2 5 -2 10q0 15 14 32l334 416l-215 404q-12 24 2 44.5t41 20.5h66q21 0 32 -18l166 -348h6l277 348q15 18 37 18h82q26 0 34 -20q3 -6 3 -13q0 -15 -13 -32l-344 -404l228 -418q13 -23 1.5 -41t-36.5 -18h-72q-23 0 -31 20l-182 357h-6l-277 -359q-11 -18 -34 -18 h-78q-27 0 -33 19z" />
<glyph unicode="y" horiz-adv-x="993" d="M92 -473q-2 5 -2 11q0 12 8 28l238 434l-230 895q-6 22 5 36.5t34 14.5h76q27 0 33 -26l174 -756h6l385 756q13 26 41 26h84q24 0 32 -15q4 -6 4 -14q0 -11 -7 -24l-721 -1352q-5 -10 -17.5 -19t-23.5 -9h-88q-24 0 -31 14z" />
<glyph unicode="z" horiz-adv-x="800" d="M10 39q0 24 15 47l518 721v6h-371q-17 0 -25.5 13t-5.5 32l9 43q3 20 16 32.5t29 12.5h540q17 0 27 -10.5t10 -26.5q0 -15 -8 -28l-535 -746v-2h351q19 0 28.5 -12t5.5 -33l-8 -43q-3 -19 -16.5 -32t-30.5 -13h-510q-39 0 -39 39z" />
<glyph unicode="{" horiz-adv-x="770" d="M51 440l10 64q1 11 11.5 20t21.5 11q42 8 92 52.5t58 106.5l41 299q15 107 56 190.5t93.5 133.5t119 82t127 43.5t122.5 11.5q15 0 24.5 -8.5t8.5 -26.5l-7 -39q-2 -14 -10 -25t-20 -12q-344 -42 -387 -350l-33 -241q-8 -59 -25.5 -105t-35 -73t-43.5 -48.5t-41 -30 t-39 -18.5l-2 -14q13 -6 20.5 -10.5t21 -14t21.5 -20t19 -25.5t16.5 -34.5t10 -44t3.5 -57t-6 -69.5l-33 -241q-23 -162 49.5 -244.5t239.5 -103.5q23 -4 18 -35l-6 -41q-1 -14 -14 -24.5t-27 -10.5q-60 0 -118 15t-113 50t-94 86.5t-57 131t-5 176.5l41 299q8 62 -28 107.5 t-76 52.5q-11 2 -18.5 12t-6.5 22z" />
<glyph unicode="|" horiz-adv-x="409" d="M18 -451l277 1969q1 16 14 27t27 11h14q14 0 22 -10.5t5 -27.5l-275 -1969q-3 -15 -15 -25.5t-26 -10.5h-12q-14 0 -23 10.5t-8 25.5z" />
<glyph unicode="}" horiz-adv-x="768" d="M-96 -477l6 41q6 32 31 35q70 5 129 24t114 57t92 106t50 161l32 241q8 59 25.5 105t35 73t44 48.5t41.5 29.5t39 19l2 14q-13 6 -20 10.5t-21 14t-22.5 19.5t-19 25.5t-16.5 35t-10.5 44t-3.5 57t6 69.5l33 241q22 159 -56 244.5t-233 105.5q-9 1 -14.5 12t-3.5 25l6 39 q6 35 41 35q59 0 117.5 -16.5t112.5 -53.5t93 -89.5t57.5 -130.5t6.5 -171l-39 -299q-8 -63 27.5 -107.5t75.5 -51.5q11 -2 18 -10.5t6 -20.5l-10 -64q-1 -12 -11.5 -22t-21.5 -12q-43 -7 -92 -52t-57 -108l-41 -299q-15 -107 -56 -190.5t-93.5 -133t-119 -81t-126 -43 t-121.5 -11.5q-14 0 -24 10t-9 25z" />
<glyph unicode="~" horiz-adv-x="1062" d="M106 502q-15 18 5 49q11 17 20 30.5t37.5 45.5t56.5 54t70.5 40t85.5 18q39 0 78 -16.5t60.5 -33.5t51.5 -44l14 -11q14 -12 19.5 -16t19.5 -13.5t24 -14t23 -8.5t25 -4q23 0 45 9t43.5 29t32 31.5t30.5 38t21 27.5q12 15 26.5 17.5t25.5 -9.5l41 -35q17 -20 -5 -49 q-1 -1 -12.5 -17.5t-23 -30.5t-30.5 -35.5t-40.5 -38t-47 -32.5t-56 -25t-62.5 -9q-38 0 -77 17t-58.5 31.5t-50.5 41.5q-5 4 -20 17t-24 20t-23.5 16t-29 13.5t-30.5 4.5t-32.5 -4.5t-32 -16t-26.5 -19.5t-26 -26t-20.5 -24.5t-19.5 -25.5l-13 -19q-12 -15 -26 -17.5 t-25 9.5q-7 6 -22 17.5t-22 17.5z" />
<glyph unicode="&#xa1;" horiz-adv-x="487" d="M10 -446l33 229l123 575q3 12 15 22.5t24 10.5h28q12 0 21.5 -10.5t9.5 -22.5l-41 -571l-33 -233q-2 -15 -13.5 -27t-24.5 -12h-111q-13 0 -23 12t-8 27zM170 838q0 54 39 92.5t92 38.5q41 0 68.5 -30.5t27.5 -72.5q0 -54 -39 -92.5t-90 -38.5q-42 0 -70 30t-28 73z" />
<glyph unicode="&#xa2;" horiz-adv-x="1036" d="M123 401q0 116 42 221.5t112 180.5t165 119.5t197 44.5q3 0 57 -6l37 102q8 18 24 27t31 2l17 -5q15 -3 21 -18t-3 -35l-39 -96q90 -47 140 -137q10 -17 5 -35t-22 -29l-41 -28q-36 -24 -59 10q-28 48 -76 76l-252 -658q24 -4 41 -4q43 0 80.5 13.5t66.5 39.5t42 40.5 t32 39.5q25 43 62 17l51 -47q24 -21 4 -62q-52 -83 -147.5 -141t-210.5 -58q-15 0 -78 11l-88 -230q-4 -17 -20.5 -26t-34.5 -4l-15 6q-13 3 -19 17.5t1 33.5l88 237q-94 55 -152.5 155.5t-58.5 225.5zM297 422q0 -79 26 -143t72 -103l246 647h-12q-129 0 -230.5 -120 t-101.5 -281z" />
<glyph unicode="&#xa3;" d="M225 39l6 37q153 248 146 526h-82q-13 0 -21 12t-6 27l2 14q2 16 12.5 27.5t26.5 11.5h58q-1 11 -6 52.5t-9 92t-4 93.5q0 247 121.5 384.5t325.5 137.5q56 0 105.5 -15t89 -43.5t57.5 -44t43 -42.5q10 -11 8.5 -26.5t-13.5 -27.5l-49 -49q-31 -31 -53 -2q-7 9 -20 22.5 t-40.5 37t-67 39.5t-79.5 16q-117 0 -199.5 -102t-82.5 -277q0 -48 5 -102t11 -95.5t6 -48.5h289q14 0 22.5 -11.5t6.5 -27.5l-3 -16q-2 -15 -12.5 -26t-25.5 -11h-269q2 -92 -26 -233.5t-78 -237.5h444q13 0 21 -11t6 -28l-6 -53q-1 -15 -13 -27t-26 -12h-590q-13 0 -23 12 t-8 27z" />
<glyph unicode="&#xa4;" horiz-adv-x="933" d="M139.5 426q3.5 18 14.5 29l90 84q-17 53 -17 96q0 100 56 186l-66 84q-8 10 -6 28.5t14 27.5l49 38q12 9 27 9.5t23 -9.5l65 -84q62 41 131 41q68 0 117 -38l90 86q11 10 24 8.5t23 -11.5l37 -40q9 -11 7 -27t-13 -27l-90 -84q16 -41 16 -98q0 -103 -55 -188l65 -84 q8 -10 6 -27.5t-14 -26.5l-49 -41q-11 -11 -25 -11.5t-22 9.5l-68 86q-64 -39 -129 -39t-118 41l-89 -84q-11 -10 -25.5 -9.5t-23.5 9.5l-39 39q-9 9 -5.5 27zM346 653q0 -53 30 -87t79 -34q62 0 107.5 52.5t45.5 117.5q0 55 -30 90t-80 35q-62 0 -107 -52.5t-45 -121.5z " />
<glyph unicode="&#xa5;" d="M198 1418.5q8 15.5 29 15.5h95q18 0 28 -19l285 -584h4l455 584q14 19 32 19h99q23 0 28.5 -20t-8.5 -40l-540 -682l-15 -102h232q15 0 23.5 -11.5t6.5 -27.5l-4 -16q-2 -15 -13 -26t-26 -11h-233l-21 -154h232q15 0 24 -12t7 -27l-3 -16q-3 -15 -14.5 -26t-26.5 -11 h-233l-29 -213q-1 -15 -14 -27t-27 -12h-86q-15 0 -23.5 11.5t-6.5 27.5l28 213h-233q-13 0 -22 12t-7 27l2 14q3 15 14.5 27t24.5 12h236l20 154h-233q-13 0 -22 12t-7 27l2 14q3 15 14.5 27t24.5 12h235l15 100l-348 694q-9 19 -1 34.5z" />
<glyph unicode="&#xa6;" horiz-adv-x="425" d="M27 -451l96 678q1 17 13 28t26 11h16q14 0 22 -11t5 -28l-94 -678q-3 -15 -15 -25.5t-26 -10.5h-13q-14 0 -22.5 10.5t-7.5 25.5zM207 842l96 676q1 16 14 27t27 11h14q14 0 22 -10.5t5 -27.5l-94 -676q-1 -15 -14 -26t-27 -11h-12q-14 0 -23 11t-8 26z" />
<glyph unicode="&#xa7;" horiz-adv-x="1087" d="M16.5 -307.5q1.5 15.5 16.5 31.5l41 45q35 35 57 6q10 -12 29.5 -30t58.5 -48.5t93 -51t108 -20.5q62 0 120 24t100 78.5t42 129.5q0 83 -63.5 154.5t-198.5 144.5q-273 149 -273 354q0 55 18.5 106.5t44.5 86t53.5 61t46 39t22.5 12.5q-3 0 -13.5 10t-26.5 32t-31 50.5 t-25.5 70.5t-10.5 87q0 51 13 102t45.5 103.5t79.5 92.5t121.5 65.5t166.5 25.5q54 0 107.5 -11t88 -23.5t68.5 -31t43 -25t19 -13.5q6 -4 10.5 -12t3.5 -23.5t-12 -32.5l-35 -43q-26 -36 -63 -12q-135 90 -234 90q-67 0 -120.5 -22.5t-84.5 -57.5t-47 -74t-16 -76 q0 -138 205 -243q86 -43 143.5 -79t108 -82t74.5 -98.5t24 -115.5q0 -56 -19.5 -109.5t-47.5 -90.5t-57.5 -65.5t-49 -42.5t-23.5 -14q3 0 14.5 -11t28 -35t32.5 -55t27 -77.5t11 -95.5q0 -173 -125.5 -279t-318.5 -106q-220 0 -373 166q-10 11 -14 17t-2.5 21.5zM299 530 q0 -35 12 -65.5t29.5 -52t52 -47.5t63.5 -43.5t81 -49t88 -55.5q6 3 15.5 8.5t34 25.5t43.5 44t34.5 63t15.5 82q0 77 -64 135t-208 132q-41 22 -66 38q-2 0 -14.5 -7t-32.5 -24t-38.5 -40.5t-32 -61.5t-13.5 -82z" />
<glyph unicode="&#xa8;" horiz-adv-x="763" d="M186 1282q0 49 35.5 84t81.5 35q39 0 63.5 -26t24.5 -68q0 -47 -35.5 -82t-81.5 -35q-38 0 -63 26t-25 66zM545 1282q0 49 34.5 84t79.5 35q41 0 66 -26t25 -68q0 -47 -35.5 -82t-81.5 -35q-40 0 -64 25.5t-24 66.5z" />
<glyph unicode="&#xa9;" horiz-adv-x="1601" d="M150 621q0 167 62.5 321.5t166.5 266.5t246 178.5t295 66.5q156 0 287.5 -86.5t207.5 -234t76 -320.5q0 -168 -62 -322.5t-166 -266t-246 -178t-296 -66.5q-116 0 -222 51t-182 137t-121.5 204.5t-45.5 248.5zM266 635q0 -145 59.5 -266.5t167 -194t240.5 -72.5 q123 0 240.5 56t205 149t140.5 222.5t53 269.5q0 146 -59 267t-166.5 192t-241.5 71q-98 0 -193 -35t-174.5 -99.5t-141 -149.5t-96 -191.5t-34.5 -218.5zM487 680q0 110 53.5 206.5t146.5 154t202 57.5q125 0 203 -78q10 -12 8.5 -28.5t-15.5 -30.5l-36 -37q-24 -24 -50 -2 q-56 47 -125 47q-101 0 -175 -86t-74 -203q0 -91 50 -151t130 -60q67 0 131 45q35 21 53 -2l31 -39q9 -11 5.5 -28t-15.5 -29q-94 -86 -226 -86q-121 0 -209 101t-88 249z" />
<glyph unicode="&#xaa;" horiz-adv-x="649" d="M162 1026q11 87 76.5 142t164.5 55q25 0 50 -5.5t37 -10.5l12 -5q15 83 7.5 120.5t-58.5 37.5q-22 0 -43 -2.5t-40.5 -8t-31.5 -9t-29 -10t-20 -7.5q-9 -3 -16 4.5t-9 18.5l-4 36q-2 20 16 31q9 6 30 14t68.5 17.5t98.5 9.5q78 0 112.5 -38t29.5 -95t-13 -123 q-1 -9 -2 -14l-43 -312q-1 -12 -9.5 -20t-19.5 -8h-43q-15 0 -18 20l-6 33q-26 -23 -40 -33.5t-47.5 -23.5t-72.5 -13q-65 0 -107.5 56t-29.5 143zM256 1024q-6 -43 12 -71.5t56 -28.5q77 0 145 77l16 115q-43 27 -98 27q-45 0 -85 -33.5t-46 -85.5z" />
<glyph unicode="&#xab;" horiz-adv-x="843" d="M92 459q-11 23 6 49l234 303q20 25 41 25h45q23 0 27.5 -19.5t-9.5 -44.5l-176 -295l80 -291q6 -26 -3.5 -43.5t-33.5 -17.5h-37q-18 0 -26 16zM403 459q-11 22 7 49l233 303q20 25 41 25h45q23 0 28 -19.5t-9 -44.5l-177 -295l80 -291q6 -26 -3.5 -43.5t-33.5 -17.5h-36 q-19 0 -27 16z" />
<glyph unicode="&#xac;" horiz-adv-x="1107" d="M164 682l8 57q1 15 14 27t27 12h702q14 0 23.5 -12.5t7.5 -26.5l-59 -417q-1 -15 -14 -26t-27 -11h-68q-14 0 -22.5 11t-5.5 26l45 321h-602q-13 0 -22 12t-7 27z" />
<glyph unicode="&#xad;" horiz-adv-x="743" d="M127 487l6 39q3 17 14.5 28t26.5 11h391q15 0 23.5 -11t5.5 -28l-6 -39q-3 -15 -14.5 -25.5t-26.5 -10.5h-389q-15 0 -24.5 10.5t-6.5 25.5z" />
<glyph unicode="&#xae;" horiz-adv-x="1601" d="M150 621q0 167 62.5 321.5t166.5 266.5t246 178.5t295 66.5q156 0 287.5 -86.5t207.5 -234t76 -320.5q0 -168 -62 -322.5t-166 -266t-246 -178t-296 -66.5q-116 0 -222 51t-182 137t-121.5 204.5t-45.5 248.5zM266 635q0 -145 59.5 -266.5t167 -194t240.5 -72.5 q123 0 240.5 56t205 149t140.5 222.5t53 269.5q0 146 -59 267t-166.5 192t-241.5 71q-98 0 -193 -35t-174.5 -99.5t-141 -149.5t-96 -191.5t-34.5 -218.5zM543 383l94 672q2 15 14 27t27 12h264q84 0 140.5 -54t56.5 -157q0 -57 -18.5 -102.5t-48 -72.5t-58.5 -42t-58 -21 q13 -40 38.5 -123t37.5 -123q7 -21 -2.5 -38t-36.5 -17h-55q-27 0 -37 29l-65 256h-136l-34 -246q-2 -15 -13 -27t-26 -12h-56q-15 0 -23 12t-5 27zM715 748h176q53 0 88 39.5t35 95.5q0 44 -24 71t-66 27h-176z" />
<glyph unicode="&#xaf;" horiz-adv-x="763" d="M80 1231l6 43q3 17 14.5 28t26.5 11h473q14 0 23 -11t6 -28l-6 -43q-1 -15 -13.5 -26t-27.5 -11h-471q-15 0 -24 11t-7 26z" />
<glyph unicode="&#xb0;" horiz-adv-x="696" d="M178 1141q0 130 84 221.5t207 91.5q89 0 151 -70t62 -170q0 -129 -86.5 -221t-204.5 -92q-86 0 -149.5 70.5t-63.5 169.5zM293 1153q0 -58 32.5 -96.5t82.5 -38.5q61 0 108 53t47 127q0 56 -31.5 95.5t-78.5 39.5q-64 0 -112 -53.5t-48 -126.5z" />
<glyph unicode="&#xb1;" d="M182 164l8 57q2 15 14 27t25 12h707q13 0 22 -12t7 -27l-9 -57q-3 -16 -14 -27.5t-24 -11.5h-707q-14 0 -23 12t-6 27zM258 825l8 58q2 15 14 27t25 12h287l43 303q3 15 15 26t26 11h61q14 0 23 -11t8 -26l-43 -303h287q13 0 21.5 -12t6.5 -27l-8 -58q-3 -15 -14.5 -27 t-24.5 -12h-286l-35 -239q-1 -15 -13 -26t-26 -11h-62q-14 0 -22.5 11t-7.5 26l32 239h-286q-14 0 -23 12t-6 27z" />
<glyph unicode="&#xb2;" horiz-adv-x="546" d="M135 1051l4 32l264 269q41 41 59.5 69t18.5 58q0 33 -22 58.5t-66 25.5q-51 0 -117 -62q-13 -11 -24 0l-29 37q-11 16 2 29q92 92 189 92q81 0 129.5 -45.5t48.5 -112.5q0 -56 -28.5 -102.5t-88.5 -106.5l-164 -170h211q16 0 13 -20l-7 -51q-5 -19 -18 -19h-358 q-20 0 -17 19z" />
<glyph unicode="&#xb3;" horiz-adv-x="548" d="M139 1096q-11 12 6 22l37 41q16 10 25 -2q7 -7 19 -16.5t41 -23t55 -13.5q48 0 84 29t36 75q0 37 -28.5 61.5t-85.5 24.5h-58q-19 0 -16 19l6 51q3 18 23 18h57q60 0 93.5 29.5t33.5 73.5q0 35 -24 57.5t-60 22.5q-25 0 -54.5 -18t-49.5 -38q-14 -11 -25 0l-33 43 q-5 4 -4 12.5t8 12.5q3 3 9 8.5t25.5 20t40 25t50 19.5t58.5 9q75 0 123.5 -41t48.5 -109q0 -56 -37.5 -100.5t-81.5 -62.5v-5q33 -14 62.5 -51.5t29.5 -85.5q0 -80 -68.5 -136t-169.5 -56q-122 0 -176 84z" />
<glyph unicode="&#xb4;" horiz-adv-x="557" d="M172 1194q-9 25 16 39l304 172q8 8 26 5.5t25 -21.5l26 -68q12 -31 -16 -43l-322 -137q-35 -15 -45 16z" />
<glyph unicode="&#xb5;" horiz-adv-x="1030" d="M41 -442l186 1343q3 17 17.5 31t29.5 14h72q17 0 28 -13.5t9 -31.5l-72 -512q-20 -141 9.5 -208.5t123.5 -67.5q30 0 59.5 8.5t53 22t44.5 30t36.5 32.5t27 29.5t17.5 22.5l6 8l92 635q2 17 16 31t31 14h68q17 0 28 -13.5t9 -31.5l-121 -856q-2 -19 -14.5 -32t-32.5 -13 h-41q-16 0 -23 10t-10 31l-8 59l-8 -8q-7 -8 -18.5 -18.5t-28.5 -23.5t-40 -26t-49.5 -23.5t-60 -17t-69.5 -6.5q-93 0 -152 35l-63 -454q-3 -18 -17 -31.5t-29 -13.5h-71q-17 0 -27.5 13t-7.5 32z" />
<glyph unicode="&#xb6;" horiz-adv-x="1382" d="M139 950q0 127 59 239.5t156.5 178.5t206.5 66h819q13 0 22 -12t7 -27l-6 -41q-3 -17 -15 -28t-26 -11h-193l-247 -1764q-2 -15 -14 -26.5t-27 -11.5h-50q-14 0 -22.5 11.5t-5.5 26.5l246 1764h-281l-248 -1764q-1 -15 -14 -26.5t-27 -11.5h-47q-13 0 -22 11.5t-7 26.5 l144 1027h-80q-140 0 -234 107.5t-94 264.5z" />
<glyph unicode="&#xb7;" horiz-adv-x="481" d="M117 520q0 54 40.5 92.5t92.5 38.5q43 0 71.5 -29.5t28.5 -72.5q0 -53 -40 -92t-93 -39q-42 0 -71 30t-29 72z" />
<glyph unicode="&#xb8;" horiz-adv-x="505" d="M51 -428q-15 18 6 43l19 25q23 32 45 10q46 -41 96 -41q56 0 93.5 28t37.5 80q0 38 -26.5 57t-71.5 19q-52 0 -92 -20q-12 -4 -21.5 7.5t-3.5 22.5l125 203h117l-109 -143q24 8 51 8q62 0 104 -39t42 -111q0 -94 -71.5 -153.5t-174.5 -59.5q-106 0 -166 64z" />
<glyph unicode="&#xb9;" horiz-adv-x="372" d="M188 1507q0 14 11 23l145 108h59q8 0 12 -5.5t3 -12.5l-82 -569q-4 -19 -19 -19h-71q-9 0 -14 5.5t-3 13.5l60 430l-80 -23q-16 -3 -16 8z" />
<glyph unicode="&#xba;" horiz-adv-x="681" d="M180 1057q0 183 73 289t206 106q89 0 140.5 -67t51.5 -183q0 -183 -72.5 -289t-205.5 -106q-89 0 -141 67t-52 183zM291 1063q0 -74 24.5 -116t69.5 -42q72 0 114 79t42 210q0 74 -25 117t-70 43q-71 0 -113 -80.5t-42 -210.5z" />
<glyph unicode="&#xbb;" horiz-adv-x="845" d="M58.5 144q-4.5 19 9.5 44l176 295l-80 291q-6 26 3.5 44t33.5 18h37q18 0 26 -17l148 -317q11 -23 -6 -49l-234 -303q-20 -25 -41 -25h-45q-23 0 -27.5 19zM371.5 144q-4.5 19 9.5 44l176 295l-80 291q-6 26 3.5 44t33.5 18h37q19 0 27 -17l147 -317q11 -23 -6 -49 l-234 -303q-20 -25 -41 -25h-45q-23 0 -27.5 19z" />
<glyph unicode="&#xbc;" horiz-adv-x="1222" d="M110 17.5q-7 17.5 5 37.5l823 1358q12 21 33 21h49q20 0 27 -18t-5 -38l-827 -1358q-10 -20 -33 -20h-45q-20 0 -27 17.5zM199 1303q0 14 10 22l145 109h60q7 0 11.5 -5.5t2.5 -13.5l-82 -569q-4 -19 -18 -19h-72q-9 0 -13.5 5.5t-2.5 13.5l59 430l-80 -23q-16 -3 -16 9z M588 139l8 60l371 401q6 6 14 6h45q6 0 11.5 -5.5t4.5 -12.5l-53 -379h74q14 0 14 -16l-6 -54q-3 -16 -20 -16h-74l-14 -105q-4 -18 -23 -18h-66q-6 0 -11.5 5.5t-4.5 12.5l14 103h-272q-6 0 -9.5 5.5t-2.5 12.5zM723 211h166l33 227z" />
<glyph unicode="&#xbd;" horiz-adv-x="1191" d="M110 17.5q-7 17.5 5 37.5l823 1358q12 21 33 21h49q20 0 27 -18t-5 -38l-827 -1358q-10 -20 -33 -20h-45q-20 0 -27 17.5zM199 1303q0 14 10 22l145 109h60q7 0 11.5 -5.5t2.5 -13.5l-82 -569q-4 -19 -18 -19h-72q-9 0 -13.5 5.5t-2.5 13.5l59 430l-80 -23q-16 -3 -16 9z M608 18l4 33l265 268q29 32 42 47.5t24 37.5t11 42q0 33 -22 58.5t-66 25.5q-51 0 -116 -61q-14 -11 -25 0l-29 37q-11 16 2 29q92 92 189 92q81 0 129.5 -45.5t48.5 -112.5q0 -56 -28.5 -102.5t-88.5 -106.5l-164 -170h211q16 0 13 -20l-7 -52q-5 -18 -18 -18h-358 q-20 0 -17 18z" />
<glyph unicode="&#xbe;" horiz-adv-x="1359" d="M143 891q-11 11 7 22l36 41q16 10 25 -2q7 -7 19 -16.5t41 -23t55 -13.5q48 0 84 29.5t36 75.5q0 37 -28.5 61.5t-85.5 24.5h-58q-19 0 -16 18l6 51q3 19 23 19h57q60 0 93.5 29t33.5 73q0 35 -24 57.5t-60 22.5q-25 0 -55 -18t-49 -37q-14 -11 -25 0l-33 43q-5 4 -4 12 t8 12q3 3 9 8.5t25.5 20t40 25t50 19.5t58.5 9q75 0 123.5 -40.5t48.5 -108.5q0 -56 -37.5 -101t-81.5 -63v-4q33 -14 62.5 -52t29.5 -86q0 -80 -68.5 -136t-169.5 -56q-122 0 -176 84zM245 17.5q-7 17.5 5 37.5l823 1358q12 21 33 21h49q20 0 27.5 -18t-4.5 -38l-828 -1358 q-10 -20 -33 -20h-45q-20 0 -27 17.5zM723 139l8 60l371 401q6 6 14 6h45q7 0 12.5 -5.5t4.5 -12.5l-54 -379h74q14 0 14 -16l-6 -54q-3 -16 -20 -16h-74l-14 -105q-4 -18 -23 -18h-65q-7 0 -12.5 5.5t-4.5 12.5l15 103h-273q-6 0 -9.5 5.5t-2.5 12.5zM858 211h166l33 227z " />
<glyph unicode="&#xbf;" horiz-adv-x="829" d="M-35 -236q0 42 8 78.5t27 68.5t35 55t47.5 51t47.5 41t52 40q37 27 52 39t39.5 35t35.5 45t15 49l12 84q3 20 15.5 30.5t27.5 10.5h67q14 0 22 -11t7 -28l-12 -86q-4 -29 -12 -54.5t-22 -48t-24.5 -38.5t-31.5 -35.5t-31.5 -28.5t-36 -29t-33.5 -26q-9 -7 -37.5 -29 t-39 -31t-31.5 -30.5t-29.5 -39t-16 -44.5t-7.5 -57q0 -64 45 -109t120 -45q34 0 66.5 8.5t54.5 18.5t47 29t36 30t31 32t24 25q24 24 47 3l36 -31q25 -22 0 -62q-8 -13 -19.5 -28t-43.5 -44.5t-70 -51.5t-100.5 -39t-132.5 -17q-126 0 -206.5 75t-80.5 195zM346 838 q0 54 39 92.5t90 38.5q42 0 70 -30.5t28 -72.5q0 -54 -39.5 -92.5t-91.5 -38.5q-42 0 -69 30t-27 73z" />
<glyph unicode="&#xc0;" horiz-adv-x="1259" d="M-46.5 16.5q-7.5 16.5 3.5 36.5l756 1379q11 22 35 22h18q22 0 29 -22l364 -1379q5 -20 -7 -36.5t-32 -16.5h-86q-25 0 -30 23l-82 337h-639l-174 -337q-14 -23 -39 -23h-88q-21 0 -28.5 16.5zM358 487h525l-162 672h-12zM618 1784l44 69q8 12 25 13t24 -6l256 -172 q8 -5 10.5 -16t-4.5 -23l-25 -41q-7 -12 -16.5 -12.5t-28.5 8.5l-270 131q-35 17 -15 49z" />
<glyph unicode="&#xc1;" horiz-adv-x="1259" d="M-46.5 16.5q-7.5 16.5 3.5 36.5l756 1379q11 22 35 22h18q22 0 29 -22l364 -1379q5 -20 -7 -36.5t-32 -16.5h-86q-25 0 -30 23l-82 337h-639l-174 -337q-14 -23 -39 -23h-88q-21 0 -28.5 16.5zM358 487h525l-162 672h-12zM594 1649q-9 25 16 39l303 172q8 8 26.5 5 t25.5 -22l26 -67q12 -31 -16 -43l-322 -138q-34 -15 -45 17z" />
<glyph unicode="&#xc2;" horiz-adv-x="1259" d="M-46.5 16.5q-7.5 16.5 3.5 36.5l756 1379q11 22 35 22h18q22 0 29 -22l364 -1379q5 -20 -7 -36.5t-32 -16.5h-86q-25 0 -30 23l-82 337h-639l-174 -337q-14 -23 -39 -23h-88q-21 0 -28.5 16.5zM358 487h525l-162 672h-12zM520 1622q-15 32 10 49l244 193q18 14 37 14h6 q19 0 39 -25l172 -186q16 -19 -4 -39l-29 -31q-13 -13 -20 -15.5t-23 7.5l-159 135l-209 -145q-14 -10 -26.5 -8t-18.5 14z" />
<glyph unicode="&#xc3;" horiz-adv-x="1259" d="M-46.5 16.5q-7.5 16.5 3.5 36.5l756 1379q11 22 35 22h18q22 0 29 -22l364 -1379q5 -20 -7 -36.5t-32 -16.5h-86q-25 0 -30 23l-82 337h-639l-174 -337q-14 -23 -39 -23h-88q-21 0 -28.5 16.5zM358 487h525l-162 672h-12zM516 1692q8 20 21 43.5t37.5 55.5t61.5 52.5 t79 20.5q29 0 53.5 -15t40 -37t29 -44t28.5 -37t31 -15q53 0 86 96q17 43 51 23l29 -16q12 -7 15.5 -21t-1.5 -26q-7 -24 -21.5 -50.5t-38 -56t-59.5 -49t-77 -19.5q-31 0 -60 23.5t-47 51.5t-38 51.5t-36 23.5t-30 -8t-22.5 -17t-18.5 -27t-13 -25.5t-10 -24.5 q-6 -14 -20.5 -19.5t-28.5 2.5l-33 17q-22 15 -8 47z" />
<glyph unicode="&#xc4;" horiz-adv-x="1259" d="M-46.5 16.5q-7.5 16.5 3.5 36.5l756 1379q11 22 35 22h18q22 0 29 -22l364 -1379q5 -20 -7 -36.5t-32 -16.5h-86q-25 0 -30 23l-82 337h-639l-174 -337q-14 -23 -39 -23h-88q-21 0 -28.5 16.5zM358 487h525l-162 672h-12zM489 1706q0 49 35 84t80 35q39 0 64.5 -26.5 t25.5 -67.5q0 -47 -35.5 -82t-80.5 -35q-41 0 -65 26t-24 66zM889 1706q0 49 35 84t80 35q39 0 64.5 -26.5t25.5 -67.5q0 -47 -36 -82t-81 -35q-40 0 -64 25.5t-24 66.5z" />
<glyph unicode="&#xc5;" horiz-adv-x="1259" d="M-46.5 16.5q-7.5 16.5 3.5 36.5l756 1379q11 22 35 22h18q22 0 29 -22l364 -1379q5 -20 -7 -36.5t-32 -16.5h-86q-25 0 -30 23l-82 337h-639l-174 -337q-14 -23 -39 -23h-88q-21 0 -28.5 16.5zM358 487h525l-162 672h-12zM596 1745q0 105 69 179.5t166 74.5 q74 0 124.5 -56.5t50.5 -136.5q0 -105 -70 -179.5t-166 -74.5q-75 0 -124.5 56t-49.5 137zM694 1761q0 -45 23.5 -77.5t64.5 -32.5q47 0 84 43t37 98q0 44 -22.5 74t-63.5 30q-47 0 -85 -40.5t-38 -94.5z" />
<glyph unicode="&#xc6;" horiz-adv-x="1667" d="M-77 16.5q-5 16.5 9 36.5l926 1317q18 26 27 36.5t25 19t38 8.5h707q13 0 21.5 -12t6.5 -27l-8 -60q-2 -15 -14 -27t-27 -12h-616l-72 -499h529q13 0 21.5 -12t6.5 -27l-8 -60q-3 -17 -15 -28t-26 -11h-526l-74 -522h619q13 0 21.5 -12t6.5 -27l-8 -59q-2 -15 -14 -27 t-27 -12h-729q-15 0 -24 12t-7 27l45 321h-420l-231 -337q-18 -23 -39 -23h-98q-21 0 -26 16.5zM410 487h346l94 654z" />
<glyph unicode="&#xc7;" horiz-adv-x="1327" d="M125 616q0 228 100.5 420t279 305t396.5 113q133 0 232.5 -47.5t187.5 -142.5q11 -10 9 -29t-15 -29l-60 -47q-15 -12 -26.5 -9.5t-26.5 19.5q-52 59 -142 98.5t-179 39.5q-114 0 -222.5 -55t-188.5 -146t-128.5 -215.5t-48.5 -255.5q0 -135 52 -250t150 -185.5 t220 -70.5q45 0 87.5 10t73 22t70.5 37.5t61.5 41.5t63.5 49q28 23 45 6l64 -62q10 -14 6.5 -28.5t-15.5 -26.5q-188 -180 -432 -196l-90 -119q24 8 51 8q63 0 107.5 -39.5t44.5 -110.5q0 -94 -74.5 -153.5t-177.5 -59.5q-106 0 -166 64q-15 18 6 43l19 25q23 32 45 10 q46 -41 96 -41q57 0 94 24.5t37 75.5q0 68 -98 68q-59 0 -101 -21q-12 -4 -21 8t-3 23l119 199q-102 13 -194.5 67.5t-160 137t-107.5 194t-40 231.5z" />
<glyph unicode="&#xc8;" horiz-adv-x="1093" d="M119 39l190 1356q1 15 13 27t26 12h731q15 0 23.5 -12t5.5 -27l-8 -60q-2 -15 -14 -27t-27 -12h-606l-72 -499h518q14 0 23 -12t6 -27l-8 -60q-1 -17 -13 -28t-26 -11h-519l-73 -522h608q15 0 23.5 -12t5.5 -27l-8 -59q-2 -15 -14 -27t-27 -12h-730q-15 0 -23 12t-5 27z M578 1784l43 69q8 12 25 13t24 -6l256 -172q8 -5 10.5 -16t-4.5 -23l-25 -41q-7 -12 -16.5 -12.5t-28.5 8.5l-270 131q-34 16 -14 49z" />
<glyph unicode="&#xc9;" horiz-adv-x="1093" d="M119 39l190 1356q1 15 13 27t26 12h731q15 0 23.5 -12t5.5 -27l-8 -60q-2 -15 -14 -27t-27 -12h-606l-72 -499h518q14 0 23 -12t6 -27l-8 -60q-1 -17 -13 -28t-26 -11h-519l-73 -522h608q15 0 23.5 -12t5.5 -27l-8 -59q-2 -15 -14 -27t-27 -12h-730q-15 0 -23 12t-5 27z M555 1649q-9 25 16 39l303 172q8 8 26.5 5t25.5 -22l26 -67q12 -31 -16 -43l-322 -138q-34 -15 -45 17z" />
<glyph unicode="&#xca;" horiz-adv-x="1093" d="M119 39l190 1356q1 15 13 27t26 12h731q15 0 23.5 -12t5.5 -27l-8 -60q-2 -15 -14 -27t-27 -12h-606l-72 -499h518q14 0 23 -12t6 -27l-8 -60q-1 -17 -13 -28t-26 -11h-519l-73 -522h608q15 0 23.5 -12t5.5 -27l-8 -59q-2 -15 -14 -27t-27 -12h-730q-15 0 -23 12t-5 27z M479 1622q-15 32 10 49l244 193q18 14 37 14h6q19 0 39 -25l172 -186q16 -19 -4 -39l-29 -31q-13 -13 -20 -15.5t-23 7.5l-159 135l-209 -145q-14 -10 -26.5 -8t-18.5 14z" />
<glyph unicode="&#xcb;" horiz-adv-x="1093" d="M119 39l190 1356q1 15 13 27t26 12h731q15 0 23.5 -12t5.5 -27l-8 -60q-2 -15 -14 -27t-27 -12h-606l-72 -499h518q14 0 23 -12t6 -27l-8 -60q-1 -17 -13 -28t-26 -11h-519l-73 -522h608q15 0 23.5 -12t5.5 -27l-8 -59q-2 -15 -14 -27t-27 -12h-730q-15 0 -23 12t-5 27z M438 1706q0 49 35 84t80 35q39 0 64.5 -26.5t25.5 -67.5q0 -47 -36 -82t-81 -35q-40 0 -64 25.5t-24 66.5zM838 1706q0 49 34.5 84t79.5 35q39 0 64.5 -26.5t25.5 -67.5q0 -47 -35.5 -82t-80.5 -35q-40 0 -64 25.5t-24 66.5z" />
<glyph unicode="&#xcc;" horiz-adv-x="546" d="M119 39l190 1356q1 15 13 27t26 12h90q14 0 23 -12t6 -27l-191 -1356q-2 -15 -13.5 -27t-24.5 -12h-91q-14 0 -22.5 12t-5.5 27zM256 1784l43 69q8 12 25 13t24 -6l256 -172q8 -5 10.5 -16t-4.5 -23l-24 -41q-7 -12 -16.5 -12.5t-28.5 8.5l-271 131q-34 16 -14 49z" />
<glyph unicode="&#xcd;" horiz-adv-x="546" d="M119 39l190 1356q1 15 13 27t26 12h90q14 0 23 -12t6 -27l-191 -1356q-2 -15 -13.5 -27t-24.5 -12h-91q-14 0 -22.5 12t-5.5 27zM231 1649q-9 24 17 39l303 172q8 8 26 5t25 -22l27 -67q12 -30 -17 -43l-321 -138q-34 -15 -45 17z" />
<glyph unicode="&#xce;" horiz-adv-x="546" d="M119 39l190 1356q1 15 13 27t26 12h90q14 0 23 -12t6 -27l-191 -1356q-2 -15 -13.5 -27t-24.5 -12h-91q-14 0 -22.5 12t-5.5 27zM158 1622q-15 32 10 49l244 193q17 14 37 14h6q19 0 39 -25l172 -186q16 -19 -4 -39l-29 -31q-13 -13 -20 -15.5t-23 7.5l-160 135 l-209 -145q-14 -10 -26.5 -8t-18.5 14z" />
<glyph unicode="&#xcf;" horiz-adv-x="546" d="M119 39l190 1356q1 15 13 27t26 12h90q14 0 23 -12t6 -27l-191 -1356q-2 -15 -13.5 -27t-24.5 -12h-91q-14 0 -22.5 12t-5.5 27zM129 1706q0 49 35 84t80 35q39 0 64.5 -26.5t25.5 -67.5q0 -47 -36 -82t-81 -35q-40 0 -64 25.5t-24 66.5zM528 1706q0 49 35 84t80 35 q39 0 64.5 -26.5t25.5 -67.5q0 -47 -36 -82t-81 -35q-40 0 -64 25.5t-24 66.5z" />
<glyph unicode="&#xd0;" horiz-adv-x="1411" d="M121 39l88 625h-55q-13 0 -21 11.5t-6 26.5l2 15q1 15 13 27t26 12h53l90 639q1 15 13 27t26 12h416q157 0 285.5 -86.5t199 -229t70.5 -307.5q0 -164 -60 -313.5t-161 -258.5t-241 -174t-294 -65h-418q-13 0 -21 12t-5 27zM291 141h264q162 0 297.5 85.5t216 239 t80.5 341.5q0 214 -118.5 350.5t-311.5 136.5h-266l-76 -538h375q15 0 23 -12t5 -27l-2 -17q-2 -15 -13 -25.5t-26 -10.5h-377z" />
<glyph unicode="&#xd1;" horiz-adv-x="1452" d="M119 39l192 1378q2 15 15 26t30 11h31q19 0 31 -18l649 -1131h2l154 1090q2 15 15.5 27t31.5 12h65q17 0 27 -11.5t8 -27.5l-194 -1379q-1 -15 -15 -25.5t-31 -10.5h-30q-19 0 -31 18l-651 1151h-4l-150 -1110q-2 -15 -16 -27t-31 -12h-65q-17 0 -26 11.5t-7 27.5z M596 1692q8 20 21 43.5t37.5 55.5t61.5 52.5t79 20.5q29 0 53.5 -15t40 -37t29 -44t28.5 -37t31 -15q53 0 86 96q17 43 51 23l29 -16q12 -7 15.5 -21t-1.5 -26q-7 -24 -21.5 -50.5t-38 -56t-59.5 -49t-77 -19.5q-31 0 -60 23.5t-47 51.5t-38 51.5t-36 23.5t-30 -8t-22.5 -17 t-18.5 -27t-13 -25.5t-10 -24.5q-6 -14 -20.5 -19.5t-28.5 2.5l-33 17q-22 15 -8 47z" />
<glyph unicode="&#xd2;" horiz-adv-x="1558" d="M121 606q0 168 64 325.5t169.5 271.5t248 182.5t294.5 68.5q161 0 293.5 -82t208.5 -226t76 -319q0 -170 -63 -326.5t-167.5 -270.5t-248 -182t-298.5 -68q-162 0 -294 81.5t-207.5 225.5t-75.5 319zM268 623q0 -214 126 -357t321 -143q155 0 296.5 94t228.5 253.5 t87 338.5q0 105 -33.5 197.5t-92 159.5t-141.5 106t-179 39q-154 0 -296 -95t-229.5 -255t-87.5 -338zM774 1784l43 69q8 12 25 13t24 -6l256 -172q8 -5 10.5 -16t-4.5 -23l-24 -41q-7 -12 -16.5 -12.5t-28.5 8.5l-271 131q-34 16 -14 49z" />
<glyph unicode="&#xd3;" horiz-adv-x="1558" d="M121 606q0 168 64 325.5t169.5 271.5t248 182.5t294.5 68.5q161 0 293.5 -82t208.5 -226t76 -319q0 -170 -63 -326.5t-167.5 -270.5t-248 -182t-298.5 -68q-162 0 -294 81.5t-207.5 225.5t-75.5 319zM268 623q0 -214 126 -357t321 -143q155 0 296.5 94t228.5 253.5 t87 338.5q0 105 -33.5 197.5t-92 159.5t-141.5 106t-179 39q-154 0 -296 -95t-229.5 -255t-87.5 -338zM750 1649q-9 25 16 39l303 172q8 8 26 5t25 -22l27 -67q12 -30 -17 -43l-321 -138q-34 -15 -45 17z" />
<glyph unicode="&#xd4;" horiz-adv-x="1558" d="M121 606q0 168 64 325.5t169.5 271.5t248 182.5t294.5 68.5q161 0 293.5 -82t208.5 -226t76 -319q0 -170 -63 -326.5t-167.5 -270.5t-248 -182t-298.5 -68q-162 0 -294 81.5t-207.5 225.5t-75.5 319zM268 623q0 -214 126 -357t321 -143q155 0 296.5 94t228.5 253.5 t87 338.5q0 105 -33.5 197.5t-92 159.5t-141.5 106t-179 39q-154 0 -296 -95t-229.5 -255t-87.5 -338zM674 1622q-15 32 10 49l244 193q18 14 37 14h6q19 0 39 -25l172 -186q16 -19 -4 -39l-29 -31q-13 -13 -20 -15.5t-23 7.5l-160 135l-209 -145q-14 -10 -26.5 -8t-18.5 14 z" />
<glyph unicode="&#xd5;" horiz-adv-x="1558" d="M121 606q0 168 64 325.5t169.5 271.5t248 182.5t294.5 68.5q161 0 293.5 -82t208.5 -226t76 -319q0 -170 -63 -326.5t-167.5 -270.5t-248 -182t-298.5 -68q-162 0 -294 81.5t-207.5 225.5t-75.5 319zM268 623q0 -214 126 -357t321 -143q155 0 296.5 94t228.5 253.5 t87 338.5q0 105 -33.5 197.5t-92 159.5t-141.5 106t-179 39q-154 0 -296 -95t-229.5 -255t-87.5 -338zM670 1692q8 20 21 43.5t37 55.5t61 52.5t79 20.5q29 0 53.5 -15t40 -37t29.5 -44t29 -37t31 -15q53 0 86 96q17 43 51 23l29 -16q12 -7 15.5 -21t-1.5 -26 q-7 -23 -21.5 -50t-38.5 -56.5t-60 -49t-77 -19.5q-31 0 -60 23.5t-46.5 51.5t-37.5 51.5t-36 23.5t-30 -8t-22.5 -17t-18.5 -27t-13 -25.5t-10 -24.5q-6 -14 -20.5 -19.5t-28.5 2.5l-33 17q-22 15 -8 47z" />
<glyph unicode="&#xd6;" horiz-adv-x="1558" d="M121 606q0 168 64 325.5t169.5 271.5t248 182.5t294.5 68.5q161 0 293.5 -82t208.5 -226t76 -319q0 -170 -63 -326.5t-167.5 -270.5t-248 -182t-298.5 -68q-162 0 -294 81.5t-207.5 225.5t-75.5 319zM268 623q0 -214 126 -357t321 -143q155 0 296.5 94t228.5 253.5 t87 338.5q0 105 -33.5 197.5t-92 159.5t-141.5 106t-179 39q-154 0 -296 -95t-229.5 -255t-87.5 -338zM645 1706q0 49 35 84t80 35q39 0 64.5 -26.5t25.5 -67.5q0 -47 -36 -82t-81 -35q-40 0 -64 25.5t-24 66.5zM1044 1706q0 49 35 84t80 35q39 0 64.5 -26.5t25.5 -67.5 q0 -47 -35.5 -82t-80.5 -35q-41 0 -65 26t-24 66z" />
<glyph unicode="&#xd7;" d="M284.5 460q2.5 17 14.5 27l236 230l-166 223q-8 10 -6 27.5t14 27.5l39 35q12 10 28 10t23 -10l166 -223l241 233q11 10 24.5 9t23.5 -11l43 -47q9 -9 7 -26t-14 -27l-239 -233l170 -226q9 -12 5.5 -28t-15.5 -27l-41 -33q-12 -11 -26.5 -11.5t-23.5 9.5l-170 227 l-237 -229q-11 -10 -24.5 -9.5t-22.5 9.5l-43 47q-9 9 -6.5 26z" />
<glyph unicode="&#xd8;" horiz-adv-x="1560" d="M91.5 71.5q1.5 16.5 12.5 26.5l132 127q-113 168 -113 379q0 119 36 240.5t106 230.5t163 194t215.5 135t255.5 50q124 0 232.5 -49.5t187.5 -140.5l137 133q10 11 25 11t22 -11l10 -11q7 -11 5 -26.5t-13 -26.5l-137 -133q109 -164 109 -373q0 -120 -36 -242 t-105.5 -230t-162.5 -192t-216 -133.5t-257 -49.5q-122 0 -228.5 48t-184.5 134l-133 -127q-11 -10 -25.5 -9.5t-22.5 11.5l-8 8q-8 10 -6.5 26.5zM270 623q0 -164 78 -291l860 827q-129 152 -325 152q-124 0 -239 -60.5t-196 -157.5t-129.5 -221t-48.5 -249zM395 266 q124 -143 322 -143q124 0 239 60t196 156t129 220t48 250q0 156 -74 285z" />
<glyph unicode="&#xd9;" horiz-adv-x="1347" d="M166 416q0 42 6 88l123 891q3 15 15.5 27t25.5 12h88q15 0 23.5 -12t5.5 -27l-121 -879q-6 -44 -6 -82q0 -142 74 -225.5t208 -83.5q154 0 261.5 109.5t131.5 277.5l123 883q2 15 14 27t25 12h88q14 0 23 -12t6 -27l-123 -891q-33 -241 -179.5 -382.5t-387.5 -141.5 q-188 0 -306 120t-118 316zM657 1784l43 69q8 12 25.5 13t24.5 -6l256 -172q8 -5 10.5 -16t-4.5 -23l-25 -41q-7 -12 -16.5 -12.5t-28.5 8.5l-270 131q-35 17 -15 49z" />
<glyph unicode="&#xda;" horiz-adv-x="1347" d="M166 416q0 42 6 88l123 891q3 15 15.5 27t25.5 12h88q15 0 23.5 -12t5.5 -27l-121 -879q-6 -44 -6 -82q0 -142 74 -225.5t208 -83.5q154 0 261.5 109.5t131.5 277.5l123 883q2 15 14 27t25 12h88q14 0 23 -12t6 -27l-123 -891q-33 -241 -179.5 -382.5t-387.5 -141.5 q-188 0 -306 120t-118 316zM633 1649q-9 25 16 39l303 172q8 8 26.5 5t25.5 -22l26 -67q12 -31 -16 -43l-322 -138q-34 -15 -45 17z" />
<glyph unicode="&#xdb;" horiz-adv-x="1347" d="M166 416q0 42 6 88l123 891q3 15 15.5 27t25.5 12h88q15 0 23.5 -12t5.5 -27l-121 -879q-6 -44 -6 -82q0 -142 74 -225.5t208 -83.5q154 0 261.5 109.5t131.5 277.5l123 883q2 15 14 27t25 12h88q14 0 23 -12t6 -27l-123 -891q-33 -241 -179.5 -382.5t-387.5 -141.5 q-188 0 -306 120t-118 316zM559 1622q-15 32 10 49l244 193q18 14 37 14h6q19 0 39 -25l172 -186q16 -19 -4 -39l-29 -31q-13 -13 -20 -15.5t-23 7.5l-160 135l-208 -145q-14 -10 -26.5 -8t-18.5 14z" />
<glyph unicode="&#xdc;" horiz-adv-x="1347" d="M166 416q0 42 6 88l123 891q3 15 15.5 27t25.5 12h88q15 0 23.5 -12t5.5 -27l-121 -879q-6 -44 -6 -82q0 -142 74 -225.5t208 -83.5q154 0 261.5 109.5t131.5 277.5l123 883q2 15 14 27t25 12h88q14 0 23 -12t6 -27l-123 -891q-33 -241 -179.5 -382.5t-387.5 -141.5 q-188 0 -306 120t-118 316zM526 1706q0 49 35 84t80 35q39 0 64.5 -26.5t25.5 -67.5q0 -47 -36 -82t-81 -35q-40 0 -64 25.5t-24 66.5zM926 1706q0 49 34.5 84t79.5 35q39 0 64.5 -26.5t25.5 -67.5q0 -47 -35.5 -82t-80.5 -35q-40 0 -64 25.5t-24 66.5z" />
<glyph unicode="&#xdd;" horiz-adv-x="1097" d="M132.5 1418.5q8.5 15.5 29.5 15.5h94q20 0 29 -19l284 -584h4l455 584q14 19 33 19h98q23 0 29 -20t-8 -40l-541 -682l-92 -653q-1 -15 -14 -27t-27 -12h-86q-15 0 -24 12t-7 27l92 651l-348 694q-9 19 -0.5 34.5zM498 1649q-9 25 16 39l303 172q8 8 26 5t25 -22l27 -67 q12 -31 -16 -43l-322 -138q-34 -15 -45 17z" />
<glyph unicode="&#xde;" horiz-adv-x="1136" d="M119 39l190 1354q3 16 15 28.5t26 12.5h86q13 0 23 -12t8 -27l-31 -219h289q150 0 252 -118t102 -292q0 -134 -65.5 -250.5t-176 -185t-237.5 -68.5h-293l-31 -223q-3 -15 -15 -27t-25 -12h-86q-15 0 -24 12t-7 27zM328 414h280q121 0 217.5 104.5t96.5 247.5 q0 107 -65.5 180.5t-162.5 73.5h-280z" />
<glyph unicode="&#xdf;" horiz-adv-x="1185" d="M16 -440l189 1321q18 127 59 230.5t105 181t156.5 119.5t205.5 42q64 0 121.5 -18t105 -53t75.5 -94t28 -134q0 -63 -21.5 -121t-52.5 -99.5t-62.5 -78t-53 -69t-21.5 -58.5t31 -69t67.5 -86t67.5 -112.5t31 -142.5q0 -150 -102 -247t-238 -97q-101 0 -199 45 q-41 18 -27 56l23 55q12 36 49 23q1 -1 12 -6.5t15.5 -8t16.5 -7.5t21 -7.5t22 -5.5t27 -4.5t29 -1.5q82 0 139.5 60.5t57.5 150.5q0 47 -20.5 92.5t-49.5 81t-57.5 70t-49 74t-20.5 79.5q0 43 22 86.5t53 81.5t62.5 76t53.5 84.5t22 93.5q0 77 -51.5 126.5t-142.5 49.5 q-79 0 -143 -34.5t-107 -94.5t-70 -134t-39 -161l-186 -1335q-2 -19 -16 -33t-31 -14h-74q-15 0 -25.5 14.5t-7.5 32.5z" />
<glyph unicode="&#xe0;" horiz-adv-x="1050" d="M88 395q0 169 62 300.5t166.5 201.5t232.5 70q43 0 82.5 -10.5t66 -25.5t47 -30.5t29.5 -26.5l10 -10l31 60q8 22 31 22h47q20 0 26.5 -8.5t4.5 -30.5l-103 -872q-3 -35 -41 -35h-47q-27 0 -31 35l-8 59q-1 0 -15 -12t-39 -29t-57.5 -34.5t-78 -29.5t-92.5 -12 q-139 0 -231.5 122t-92.5 296zM242 395q0 -70 23 -133t72.5 -106t115.5 -43q43 0 83.5 16t68 38t49 44.5t32.5 38.5l10 16l56 453q-3 5 -8 12.5t-24 26.5t-41.5 34t-60 27t-79.5 12q-54 0 -105.5 -26.5t-95 -78t-70 -137.5t-26.5 -194zM426 1331l43 70q8 12 25 12.5t24 -6.5 l256 -172q8 -5 10.5 -16t-4.5 -23l-24 -41q-7 -12 -16.5 -12.5t-28.5 8.5l-271 131q-34 16 -14 49z" />
<glyph unicode="&#xe1;" horiz-adv-x="1050" d="M88 395q0 169 62 300.5t166.5 201.5t232.5 70q43 0 82.5 -10.5t66 -25.5t47 -30.5t29.5 -26.5l10 -10l31 60q8 22 31 22h47q20 0 26.5 -8.5t4.5 -30.5l-103 -872q-3 -35 -41 -35h-47q-27 0 -31 35l-8 59q-1 0 -15 -12t-39 -29t-57.5 -34.5t-78 -29.5t-92.5 -12 q-139 0 -231.5 122t-92.5 296zM242 395q0 -70 23 -133t72.5 -106t115.5 -43q43 0 83.5 16t68 38t49 44.5t32.5 38.5l10 16l56 453q-3 5 -8 12.5t-24 26.5t-41.5 34t-60 27t-79.5 12q-54 0 -105.5 -26.5t-95 -78t-70 -137.5t-26.5 -194zM465 1194q-9 25 16 39l303 172 q8 8 26.5 5.5t25.5 -21.5l26 -68q12 -31 -16 -43l-322 -137q-35 -15 -45 16z" />
<glyph unicode="&#xe2;" horiz-adv-x="1050" d="M88 395q0 169 62 300.5t166.5 201.5t232.5 70q43 0 82.5 -10.5t66 -25.5t47 -30.5t29.5 -26.5l10 -10l31 60q8 22 31 22h47q20 0 26.5 -8.5t4.5 -30.5l-103 -872q-3 -35 -41 -35h-47q-27 0 -31 35l-8 59q-1 0 -15 -12t-39 -29t-57.5 -34.5t-78 -29.5t-92.5 -12 q-139 0 -231.5 122t-92.5 296zM242 395q0 -70 23 -133t72.5 -106t115.5 -43q43 0 83.5 16t68 38t49 44.5t32.5 38.5l10 16l56 453q-3 5 -8 12.5t-24 26.5t-41.5 34t-60 27t-79.5 12q-54 0 -105.5 -26.5t-95 -78t-70 -137.5t-26.5 -194zM346 1171q-16 33 10 50l244 192 q18 14 37 14h6q20 0 39 -24l172 -186q16 -19 -4 -39l-29 -31q-13 -13 -20 -15.5t-23 7.5l-160 135l-208 -146q-14 -10 -26.5 -7.5t-18.5 14.5z" />
<glyph unicode="&#xe3;" horiz-adv-x="1050" d="M88 395q0 169 62 300.5t166.5 201.5t232.5 70q43 0 82.5 -10.5t66 -25.5t47 -30.5t29.5 -26.5l10 -10l31 60q8 22 31 22h47q20 0 26.5 -8.5t4.5 -30.5l-103 -872q-3 -35 -41 -35h-47q-27 0 -31 35l-8 59q-1 0 -15 -12t-39 -29t-57.5 -34.5t-78 -29.5t-92.5 -12 q-139 0 -231.5 122t-92.5 296zM242 395q0 -70 23 -133t72.5 -106t115.5 -43q43 0 83.5 16t68 38t49 44.5t32.5 38.5l10 16l56 453q-3 5 -8 12.5t-24 26.5t-41.5 34t-60 27t-79.5 12q-54 0 -105.5 -26.5t-95 -78t-70 -137.5t-26.5 -194zM342 1241q8 20 21 43.5t37 55.5 t60 52.5t77 20.5q37 0 66 -23t44 -50.5t34.5 -50.5t41.5 -23q53 0 86 96q17 42 51 22l29 -16q12 -7 15.5 -21t-1.5 -26q-10 -33 -31 -69.5t-64.5 -70.5t-94.5 -34q-33 0 -62.5 23.5t-46.5 51t-38 51t-40 23.5q-16 0 -30 -8t-22.5 -17t-18.5 -27t-13 -25.5t-10 -24.5 q-6 -14 -20.5 -19t-28.5 3l-33 16q-22 15 -8 47z" />
<glyph unicode="&#xe4;" horiz-adv-x="1050" d="M88 395q0 169 62 300.5t166.5 201.5t232.5 70q43 0 82.5 -10.5t66 -25.5t47 -30.5t29.5 -26.5l10 -10l31 60q8 22 31 22h47q20 0 26.5 -8.5t4.5 -30.5l-103 -872q-3 -35 -41 -35h-47q-27 0 -31 35l-8 59q-1 0 -15 -12t-39 -29t-57.5 -34.5t-78 -29.5t-92.5 -12 q-139 0 -231.5 122t-92.5 296zM242 395q0 -70 23 -133t72.5 -106t115.5 -43q43 0 83.5 16t68 38t49 44.5t32.5 38.5l10 16l56 453q-3 5 -8 12.5t-24 26.5t-41.5 34t-60 27t-79.5 12q-54 0 -105.5 -26.5t-95 -78t-70 -137.5t-26.5 -194zM346 1282q0 49 35.5 84t81.5 35 q39 0 63.5 -26t24.5 -68q0 -47 -35.5 -82t-81.5 -35q-38 0 -63 26t-25 66zM705 1282q0 49 34.5 84t79.5 35q41 0 65.5 -26t24.5 -68q0 -47 -35 -82t-81 -35q-40 0 -64 25.5t-24 66.5z" />
<glyph unicode="&#xe5;" horiz-adv-x="1050" d="M88 395q0 169 62 300.5t166.5 201.5t232.5 70q43 0 82.5 -10.5t66 -25.5t47 -30.5t29.5 -26.5l10 -10l31 60q8 22 31 22h47q20 0 26.5 -8.5t4.5 -30.5l-103 -872q-3 -35 -41 -35h-47q-27 0 -31 35l-8 59q-1 0 -15 -12t-39 -29t-57.5 -34.5t-78 -29.5t-92.5 -12 q-139 0 -231.5 122t-92.5 296zM242 395q0 -70 23 -133t72.5 -106t115.5 -43q43 0 83.5 16t68 38t49 44.5t32.5 38.5l10 16l56 453q-3 5 -8 12.5t-24 26.5t-41.5 34t-60 27t-79.5 12q-54 0 -105.5 -26.5t-95 -78t-70 -137.5t-26.5 -194zM414 1243q0 105 69 179.5t166 74.5 q74 0 124 -56t50 -136q0 -105 -69.5 -179.5t-165.5 -74.5q-75 0 -124.5 55.5t-49.5 136.5zM512 1260q0 -46 23.5 -78.5t64.5 -32.5q47 0 84 43t37 98q0 44 -22.5 74.5t-63.5 30.5q-47 0 -85 -40.5t-38 -94.5z" />
<glyph unicode="&#xe6;" horiz-adv-x="1454" d="M45 236q0 150 106.5 256t268.5 106q50 0 98.5 -6t71.5 -12l24 -7q29 149 9 205t-99 56q-38 0 -74 -4t-66.5 -11.5t-50.5 -13.5t-42.5 -14t-24.5 -9q-39 -12 -49 31l-12 53q-7 31 43 47q16 6 44.5 15t109 24t153.5 15q95 0 141 -41t68 -107q124 148 313 148q139 0 218 -68 t79 -178q0 -143 -130 -224t-370 -81q-65 0 -139 6q-12 -121 53 -215t170 -94q96 0 207 73q25 15 37.5 15.5t32.5 -21.5l25 -35q11 -13 7.5 -26t-24.5 -33q-55 -44 -139 -76.5t-178 -32.5q-175 0 -271 168q-62 -69 -156 -118.5t-192 -49.5q-115 0 -188.5 70.5t-73.5 188.5z M193 254q0 -62 40.5 -101.5t110.5 -39.5q62 0 124 39.5t99 89.5l31 213q-61 20 -176 20q-99 0 -164 -61t-65 -160zM758 545q64 -6 121 -6q162 0 254 44t92 130q0 50 -44 85.5t-122 35.5q-101 0 -188 -87.5t-113 -201.5z" />
<glyph unicode="&#xe7;" horiz-adv-x="960" d="M88 401q0 122 39.5 228t106.5 180t158.5 116t193.5 42q207 0 297 -156q15 -35 -17 -61l-43 -37q-18 -13 -33.5 -9t-25.5 21q-66 106 -180 106q-134 0 -235 -114t-101 -295q0 -128 62.5 -218.5t168.5 -90.5q127 0 223 143q24 40 62 14l49 -34q26 -18 2 -62 q-44 -76 -126.5 -130t-186.5 -64l-88 -117q24 8 51 8q63 0 107 -39.5t44 -110.5q0 -94 -74 -153.5t-177 -59.5q-106 0 -166 64q-15 18 6 43l18 25q23 32 45 10q46 -41 97 -41q57 0 94 24.5t37 75.5q0 68 -99 68q-58 0 -100 -21q-12 -4 -21.5 8t-3.5 23l119 197 q-134 26 -218.5 141.5t-84.5 275.5z" />
<glyph unicode="&#xe8;" horiz-adv-x="946" d="M86 395q0 154 61 284t175.5 209t257.5 79q126 0 206 -69t80 -177q0 -139 -134.5 -223t-377.5 -84q-60 0 -131 6q-9 -123 55 -215t179 -92q43 0 84.5 14.5t64 29t58.5 40.5q34 24 59 -13l27 -41q11 -12 9.5 -26t-24.5 -31q-54 -43 -132.5 -76t-160.5 -33 q-106 0 -188.5 57.5t-125 152t-42.5 208.5zM242 543q67 -6 129 -6q166 0 256 46t90 130q0 50 -40 85.5t-108 35.5q-114 0 -209.5 -88.5t-117.5 -202.5zM463 1331l43 70q8 12 25 12.5t24 -6.5l256 -172q8 -5 10.5 -16t-4.5 -23l-24 -41q-7 -12 -16.5 -12.5t-28.5 8.5 l-271 131q-34 16 -14 49z" />
<glyph unicode="&#xe9;" horiz-adv-x="946" d="M86 395q0 154 61 284t175.5 209t257.5 79q126 0 206 -69t80 -177q0 -139 -134.5 -223t-377.5 -84q-60 0 -131 6q-9 -123 55 -215t179 -92q43 0 84.5 14.5t64 29t58.5 40.5q34 24 59 -13l27 -41q11 -12 9.5 -26t-24.5 -31q-54 -43 -132.5 -76t-160.5 -33 q-106 0 -188.5 57.5t-125 152t-42.5 208.5zM242 543q67 -6 129 -6q166 0 256 46t90 130q0 50 -40 85.5t-108 35.5q-114 0 -209.5 -88.5t-117.5 -202.5zM459 1194q-9 25 16 39l303 172q8 8 26 5.5t25 -21.5l27 -68q12 -31 -16 -43l-322 -137q-35 -15 -45 16z" />
<glyph unicode="&#xea;" horiz-adv-x="946" d="M86 395q0 154 61 284t175.5 209t257.5 79q126 0 206 -69t80 -177q0 -139 -134.5 -223t-377.5 -84q-60 0 -131 6q-9 -123 55 -215t179 -92q43 0 84.5 14.5t64 29t58.5 40.5q34 24 59 -13l27 -41q11 -12 9.5 -26t-24.5 -31q-54 -43 -132.5 -76t-160.5 -33 q-106 0 -188.5 57.5t-125 152t-42.5 208.5zM242 543q67 -6 129 -6q166 0 256 46t90 130q0 50 -40 85.5t-108 35.5q-114 0 -209.5 -88.5t-117.5 -202.5zM369 1171q-16 33 10 50l244 192q18 14 36 14h7q20 0 39 -24l172 -186q15 -19 -5 -39l-28 -31q-13 -13 -20 -15.5t-23 7.5 l-160 135l-209 -146q-14 -10 -26.5 -7.5t-18.5 14.5z" />
<glyph unicode="&#xeb;" horiz-adv-x="946" d="M86 395q0 154 61 284t175.5 209t257.5 79q126 0 206 -69t80 -177q0 -139 -134.5 -223t-377.5 -84q-60 0 -131 6q-9 -123 55 -215t179 -92q43 0 84.5 14.5t64 29t58.5 40.5q34 24 59 -13l27 -41q11 -12 9.5 -26t-24.5 -31q-54 -43 -132.5 -76t-160.5 -33 q-106 0 -188.5 57.5t-125 152t-42.5 208.5zM242 543q67 -6 129 -6q166 0 256 46t90 130q0 50 -40 85.5t-108 35.5q-114 0 -209.5 -88.5t-117.5 -202.5zM342 1282q0 49 35.5 84t81.5 35q39 0 63.5 -26t24.5 -68q0 -47 -35.5 -82t-81.5 -35q-38 0 -63 26t-25 66zM700 1282 q0 49 35 84t80 35q41 0 65.5 -26t24.5 -68q0 -47 -35.5 -82t-81.5 -35q-40 0 -64 25.5t-24 66.5z" />
<glyph unicode="&#xec;" horiz-adv-x="473" d="M86 45l119 856q2 18 15 31.5t32 13.5h74q15 0 24 -14t6 -31l-118 -856q-1 -18 -16.5 -31.5t-33.5 -13.5h-67q-17 0 -27.5 13t-7.5 32zM133 1331l43 70q8 12 25 12.5t24 -6.5l256 -172q8 -5 10.5 -16t-4.5 -23l-24 -41q-7 -12 -16.5 -12.5t-28.5 8.5l-271 131 q-34 16 -14 49z" />
<glyph unicode="&#xed;" horiz-adv-x="473" d="M86 45l119 856q2 18 15 31.5t32 13.5h74q15 0 24 -14t6 -31l-118 -856q-1 -18 -16.5 -31.5t-33.5 -13.5h-67q-17 0 -27.5 13t-7.5 32zM145 1194q-9 24 17 39l303 172q8 8 26 5.5t25 -21.5l27 -68q12 -30 -17 -43l-321 -137q-35 -15 -45 16z" />
<glyph unicode="&#xee;" horiz-adv-x="473" d="M45 1171q-16 33 10 50l244 192q18 14 37 14h6q20 0 39 -24l172 -186q16 -19 -4 -39l-29 -31q-13 -13 -20 -15.5t-23 7.5l-160 135l-208 -146q-14 -10 -27 -7.5t-19 14.5zM84 45l119 856q2 18 15 31.5t32 13.5h74q15 0 24 -14t6 -31l-118 -856q-1 -18 -16.5 -31.5 t-33.5 -13.5h-67q-17 0 -27.5 13t-7.5 32z" />
<glyph unicode="&#xef;" horiz-adv-x="473" d="M41 1282q0 49 35.5 84t81.5 35q39 0 63.5 -26t24.5 -68q0 -47 -35.5 -82t-81.5 -35q-38 0 -63 26t-25 66zM86 45l119 856q2 18 15 31.5t32 13.5h74q15 0 24 -14t6 -31l-118 -856q-1 -18 -16.5 -31.5t-33.5 -13.5h-67q-17 0 -27.5 13t-7.5 32zM399 1282q0 49 35 84t80 35 q41 0 65.5 -26t24.5 -68q0 -47 -35.5 -82t-81.5 -35q-40 0 -64 25.5t-24 66.5z" />
<glyph unicode="&#xf0;" horiz-adv-x="1087" d="M84 389q0 97 33.5 191t93 170t151.5 123t199 47q73 0 138 -24t93 -48l29 -23q-13 191 -174 363l-205 -119q-14 -7 -27 -2.5t-18 16.5l-6 17q-6 12 0 28t21 23l170 98q-88 76 -158 105q-48 17 -27 61l27 47q18 33 43 21q139 -68 240 -160l151 88q29 18 47 -14l6 -15 q6 -13 0.5 -29.5t-20.5 -23.5l-121 -69q245 -275 195 -680q-16 -130 -54.5 -236t-101 -189t-157 -129t-212.5 -46q-151 0 -253.5 118t-102.5 291zM231 393q0 -118 62 -196t166 -78q75 0 137.5 34.5t103.5 89.5t69.5 125.5t41 140.5t12.5 136q-4 6 -11 15t-32.5 32.5 t-54.5 41.5t-75.5 33t-96.5 15q-93 0 -168.5 -59.5t-114.5 -147.5t-39 -182z" />
<glyph unicode="&#xf1;" horiz-adv-x="1042" d="M86 45l119 856q2 19 14 32t33 13h41q25 0 31 -28l10 -72l15 12q15 13 41 30.5t60.5 35.5t82 30.5t96.5 12.5q312 0 258 -402l-76 -520q-1 -18 -16 -31.5t-31 -13.5h-72q-17 0 -27.5 13t-7.5 32l76 520q40 266 -137 266q-43 0 -85.5 -14t-73.5 -33.5t-55 -39.5t-38 -34 l-14 -14l-92 -651q-2 -19 -17 -32t-35 -13h-65q-17 0 -27.5 13t-7.5 32zM365 1241q6 15 14.5 32.5t26.5 43.5t38.5 46.5t51 35t63.5 14.5q37 0 66 -23t44 -50.5t34.5 -50.5t41.5 -23q53 0 86 96q17 43 52 22l28 -16q26 -17 15 -47q-7 -23 -21.5 -50t-37.5 -56.5t-58 -48.5 t-74 -19q-33 0 -62 23.5t-46.5 51t-38 51t-39.5 23.5q-16 0 -30 -8t-22.5 -17t-18.5 -27t-13 -25.5t-10 -24.5q-6 -14 -20.5 -19t-28.5 3l-33 16q-22 15 -8 47z" />
<glyph unicode="&#xf2;" horiz-adv-x="1062" d="M84 406q0 150 66 279t180.5 205.5t249.5 76.5q150 0 258 -125t108 -299q0 -152 -65.5 -282t-180 -207t-251.5 -77q-150 0 -257.5 127t-107.5 302zM227 418q0 -130 65 -217.5t169 -87.5q135 0 237.5 123.5t102.5 293.5q0 127 -65.5 214t-168.5 87q-135 0 -237.5 -121.5 t-102.5 -291.5zM442 1331l43 70q8 12 25.5 12.5t24.5 -6.5l256 -172q8 -5 10.5 -16t-4.5 -23l-25 -41q-7 -12 -16.5 -12.5t-28.5 8.5l-270 131q-35 17 -15 49z" />
<glyph unicode="&#xf3;" horiz-adv-x="1062" d="M84 406q0 150 66 279t180.5 205.5t249.5 76.5q150 0 258 -125t108 -299q0 -152 -65.5 -282t-180 -207t-251.5 -77q-150 0 -257.5 127t-107.5 302zM227 418q0 -130 65 -217.5t169 -87.5q135 0 237.5 123.5t102.5 293.5q0 127 -65.5 214t-168.5 87q-135 0 -237.5 -121.5 t-102.5 -291.5zM457 1194q-9 25 16 39l303 172q8 8 26 5.5t25 -21.5l27 -68q12 -31 -16 -43l-322 -137q-35 -15 -45 16z" />
<glyph unicode="&#xf4;" horiz-adv-x="1062" d="M84 406q0 150 66 279t180.5 205.5t249.5 76.5q150 0 258 -125t108 -299q0 -152 -65.5 -282t-180 -207t-251.5 -77q-150 0 -257.5 127t-107.5 302zM227 418q0 -130 65 -217.5t169 -87.5q135 0 237.5 123.5t102.5 293.5q0 127 -65.5 214t-168.5 87q-135 0 -237.5 -121.5 t-102.5 -291.5zM354 1171q-16 32 11 50l243 192q18 14 37 14h6q20 0 39 -24l172 -186q16 -19 -4 -39l-29 -31q-13 -13 -20 -15.5t-23 7.5l-159 135l-209 -146q-14 -10 -26.5 -7.5t-18.5 14.5z" />
<glyph unicode="&#xf5;" horiz-adv-x="1062" d="M84 406q0 150 66 279t180.5 205.5t249.5 76.5q150 0 258 -125t108 -299q0 -152 -65.5 -282t-180 -207t-251.5 -77q-150 0 -257.5 127t-107.5 302zM227 418q0 -130 65 -217.5t169 -87.5q135 0 237.5 123.5t102.5 293.5q0 127 -65.5 214t-168.5 87q-135 0 -237.5 -121.5 t-102.5 -291.5zM352 1241q8 20 21 43.5t37 55.5t60 52.5t77 20.5q37 0 66 -23t44 -50.5t34.5 -50.5t41.5 -23q53 0 86 96q17 42 51 22l29 -16q12 -7 15.5 -21t-1.5 -26q-10 -33 -31 -69.5t-64.5 -70.5t-94.5 -34q-33 0 -62 23.5t-46.5 51t-38 51t-39.5 23.5 q-25 0 -46.5 -20.5t-29.5 -37t-19 -44.5q-6 -14 -20.5 -19t-28.5 3l-33 16q-22 15 -8 47z" />
<glyph unicode="&#xf6;" horiz-adv-x="1062" d="M84 406q0 150 66 279t180.5 205.5t249.5 76.5q150 0 258 -125t108 -299q0 -152 -65.5 -282t-180 -207t-251.5 -77q-150 0 -257.5 127t-107.5 302zM227 418q0 -130 65 -217.5t169 -87.5q135 0 237.5 123.5t102.5 293.5q0 127 -65.5 214t-168.5 87q-135 0 -237.5 -121.5 t-102.5 -291.5zM365 1282q0 49 35 84t81 35q39 0 63.5 -26t24.5 -68q0 -47 -35 -82t-81 -35q-38 0 -63 26t-25 66zM723 1282q0 49 35 84t80 35q41 0 65.5 -26t24.5 -68q0 -47 -35.5 -82t-81.5 -35q-40 0 -64 25.5t-24 66.5z" />
<glyph unicode="&#xf7;" d="M242 682l8 57q1 15 14 27t27 12h704q13 0 22 -12t7 -27l-8 -57q-2 -15 -14 -27t-25 -12h-707q-13 0 -21.5 12t-6.5 27zM467 336q0 54 38 92.5t87 38.5q41 0 67.5 -29t26.5 -71q0 -54 -38 -94t-89 -40q-39 0 -65.5 30.5t-26.5 72.5zM569 1069q0 55 38.5 93t88.5 38 q39 0 65.5 -29t26.5 -71q0 -54 -37 -93.5t-87 -39.5q-41 0 -68 30t-27 72z" />
<glyph unicode="&#xf8;" horiz-adv-x="1062" d="M77 100.5q2 17.5 15 30.5l47 45q-55 107 -55 230q0 150 66 279t180.5 205.5t249.5 76.5q146 0 254 -121l57 55q15 13 32 13t27 -13l11 -10q11 -13 8.5 -32t-17.5 -32l-63 -61q57 -102 57 -223q0 -152 -65.5 -282t-180 -207t-251.5 -77q-149 0 -254 121l-43 -43 q-14 -12 -30.5 -11.5t-27.5 11.5l-8 15q-11 13 -9 30.5zM227 418q0 -76 21 -137l483 467q-67 83 -164 83q-135 0 -237.5 -121.5t-102.5 -291.5zM295 195q66 -82 166 -82q135 0 237.5 123.5t102.5 293.5q0 65 -23 129z" />
<glyph unicode="&#xf9;" horiz-adv-x="1015" d="M121 369l72 532q3 17 17.5 31t29.5 14h71q17 0 28 -13.5t9 -31.5l-74 -534q-20 -137 10 -195.5t126 -58.5q30 0 59.5 8.5t53 22t44.5 30t36 32.5t26.5 29.5t17.5 22.5l6 8l92 635q2 17 16.5 31t31.5 14h67q17 0 28 -13.5t9 -31.5l-121 -856q-2 -19 -14.5 -32t-32.5 -13 h-41q-16 0 -23 10t-10 31l-8 59l-7 -8q-8 -8 -19.5 -18.5t-28.5 -23.5t-40 -26t-49.5 -23.5t-60 -17t-69.5 -6.5q-164 0 -222.5 99t-29.5 293zM336 1323l43 70q8 12 25 12.5t24 -6.5l256 -172q8 -5 10.5 -16t-4.5 -23l-24 -41q-7 -12 -16.5 -12.5t-28.5 8.5l-271 131 q-34 16 -14 49z" />
<glyph unicode="&#xfa;" horiz-adv-x="1015" d="M121 369l72 532q3 17 17.5 31t29.5 14h71q17 0 28 -13.5t9 -31.5l-74 -534q-20 -137 10 -195.5t126 -58.5q30 0 59.5 8.5t53 22t44.5 30t36 32.5t26.5 29.5t17.5 22.5l6 8l92 635q2 17 16.5 31t31.5 14h67q17 0 28 -13.5t9 -31.5l-121 -856q-2 -19 -14.5 -32t-32.5 -13 h-41q-16 0 -23 10t-10 31l-8 59l-7 -8q-8 -8 -19.5 -18.5t-28.5 -23.5t-40 -26t-49.5 -23.5t-60 -17t-69.5 -6.5q-164 0 -222.5 99t-29.5 293zM459 1194q-9 25 16 39l303 172q8 8 26 5.5t25 -21.5l27 -68q12 -31 -16 -43l-322 -137q-35 -15 -45 16z" />
<glyph unicode="&#xfb;" horiz-adv-x="1015" d="M121 369l72 532q3 17 17.5 31t29.5 14h71q17 0 28 -13.5t9 -31.5l-74 -534q-20 -137 10 -195.5t126 -58.5q30 0 59.5 8.5t53 22t44.5 30t36 32.5t26.5 29.5t17.5 22.5l6 8l92 635q2 17 16.5 31t31.5 14h67q17 0 28 -13.5t9 -31.5l-121 -856q-2 -19 -14.5 -32t-32.5 -13 h-41q-16 0 -23 10t-10 31l-8 59l-7 -8q-8 -8 -19.5 -18.5t-28.5 -23.5t-40 -26t-49.5 -23.5t-60 -17t-69.5 -6.5q-164 0 -222.5 99t-29.5 293zM326 1171q-16 33 10 50l244 192q18 14 36 14h7q20 0 39 -24l172 -186q15 -19 -5 -39l-28 -31q-13 -13 -20 -15.5t-23 7.5 l-160 135l-209 -146q-14 -10 -26.5 -7.5t-18.5 14.5z" />
<glyph unicode="&#xfc;" horiz-adv-x="1015" d="M121 369l72 532q3 17 17.5 31t29.5 14h71q17 0 28 -13.5t9 -31.5l-74 -534q-20 -137 10 -195.5t126 -58.5q30 0 59.5 8.5t53 22t44.5 30t36 32.5t26.5 29.5t17.5 22.5l6 8l92 635q2 17 16.5 31t31.5 14h67q17 0 28 -13.5t9 -31.5l-121 -856q-2 -19 -14.5 -32t-32.5 -13 h-41q-16 0 -23 10t-10 31l-8 59l-7 -8q-8 -8 -19.5 -18.5t-28.5 -23.5t-40 -26t-49.5 -23.5t-60 -17t-69.5 -6.5q-164 0 -222.5 99t-29.5 293zM309 1282q0 49 35.5 84t81.5 35q39 0 63.5 -26t24.5 -68q0 -47 -35.5 -82t-81.5 -35q-38 0 -63 26t-25 66zM668 1282 q0 49 34.5 84t79.5 35q41 0 65.5 -26t24.5 -68q0 -47 -35 -82t-81 -35q-40 0 -64 25.5t-24 66.5z" />
<glyph unicode="&#xfd;" horiz-adv-x="993" d="M92 -473q-7 14 6 39l238 434l-230 895q-6 22 5 36.5t34 14.5h76q27 0 33 -26l174 -756h6l385 756q13 26 41 26h84q24 0 32.5 -15t-3.5 -38l-721 -1352q-5 -10 -17.5 -19t-23.5 -9h-88q-24 0 -31 14zM457 1194q-9 25 16 39l303 172q8 8 26 5.5t25 -21.5l27 -68 q12 -31 -16 -43l-322 -137q-35 -15 -45 16z" />
<glyph unicode="&#xfe;" horiz-adv-x="1056" d="M16 -440l260 1829q1 18 15.5 31.5t30.5 13.5h71q15 0 25.5 -13.5t9.5 -31.5l-72 -504q17 13 23 17t33.5 19.5t50 23t61 15t78.5 7.5q101 0 179 -60.5t117.5 -155.5t39.5 -204q0 -157 -61.5 -287.5t-172.5 -206.5t-249 -76q-112 0 -215 76l-70 -493q-2 -19 -16 -33 t-31 -14h-70q-15 0 -26.5 14.5t-10.5 32.5zM262 190q88 -77 195 -77q87 0 163 58t120 155.5t44 208.5q0 121 -60 208.5t-161 87.5q-72 0 -132.5 -39t-100.5 -85z" />
<glyph unicode="&#xff;" horiz-adv-x="993" d="M92 -473q-7 14 6 39l238 434l-230 895q-6 22 5 36.5t34 14.5h76q27 0 33 -26l174 -756h6l385 756q13 26 41 26h84q24 0 32.5 -15t-3.5 -38l-721 -1352q-5 -10 -17.5 -19t-23.5 -9h-88q-24 0 -31 14zM319 1282q0 49 35.5 84t81.5 35q39 0 63.5 -26t24.5 -68q0 -47 -35 -82 t-81 -35q-38 0 -63.5 26t-25.5 66zM678 1282q0 49 35 84t80 35q41 0 65.5 -26t24.5 -68q0 -47 -35.5 -82t-81.5 -35q-40 0 -64 25.5t-24 66.5z" />
<glyph unicode="&#x152;" horiz-adv-x="1802" d="M125 635q0 163 62.5 314t166.5 261.5t247.5 177t297.5 66.5q38 0 78 -5t61 -10l21 -5h729q14 0 22.5 -11.5t6.5 -27.5l-9 -60q-2 -15 -14 -27t-25 -12h-608l-69 -499h516q14 0 23.5 -12t6.5 -27l-10 -60q-3 -17 -14 -28t-25 -11h-518l-74 -522h609q14 0 22 -11.5t6 -27.5 l-8 -59q-2 -15 -14 -27t-25 -12h-731q-82 -20 -164 -20q-115 0 -219.5 50.5t-181 137t-121.5 208.5t-45 259zM272 635q0 -104 33 -198t91 -163.5t140.5 -110t176.5 -40.5q66 0 129 14l162 1155q-70 17 -125 17q-115 0 -226 -54.5t-194.5 -144.5t-135 -215.5t-51.5 -259.5z " />
<glyph unicode="&#x153;" horiz-adv-x="1636" d="M86 403q0 150 64 279.5t177 207t248 77.5q100 0 185.5 -54.5t128.5 -142.5q150 197 371 197q139 0 217.5 -70t78.5 -180q0 -145 -130 -227t-373 -82q-65 0 -138 6q-9 -121 55 -211t169 -90q19 0 37.5 2.5t37.5 9t31.5 11t31 15.5t25 15t25.5 17t21 14q24 15 41 13t28 -24 l21 -36q11 -16 10 -30.5t-21 -33.5q-153 -109 -319 -109q-100 0 -174.5 55t-118.5 146q-155 -201 -364 -201q-159 0 -262 121.5t-103 304.5zM233 412q0 -125 65.5 -212t164.5 -87q83 0 157 55.5t119 151.5t45 208q0 146 -59.5 226t-165.5 80q-136 0 -231 -123.5t-95 -298.5z M938 539q37 -4 104 -4q167 0 266 47.5t99 130.5q0 51 -42 86t-120 35q-98 0 -190 -91t-117 -204z" />
<glyph unicode="&#x178;" horiz-adv-x="1097" d="M132.5 1418.5q8.5 15.5 29.5 15.5h94q20 0 29 -19l284 -584h4l455 584q14 19 33 19h98q23 0 29 -20t-8 -40l-541 -682l-92 -653q-1 -15 -14 -27t-27 -12h-86q-15 0 -24 12t-7 27l92 651l-348 694q-9 19 -0.5 34.5zM391 1706q0 49 35 84t80 35q39 0 64.5 -26.5t25.5 -67.5 q0 -47 -36 -82t-81 -35q-40 0 -64 25.5t-24 66.5zM791 1706q0 49 34.5 84t79.5 35q39 0 64.5 -26.5t25.5 -67.5q0 -47 -35.5 -82t-80.5 -35q-40 0 -64 25.5t-24 66.5z" />
<glyph unicode="&#x2c6;" horiz-adv-x="688" d="M127 1171q-16 33 10 50l244 192q17 14 37 14h6q20 0 39 -24l172 -186q16 -19 -4 -39l-29 -31q-13 -13 -20 -15.5t-23 7.5l-160 135l-209 -146q-14 -10 -26.5 -7.5t-18.5 14.5z" />
<glyph unicode="&#x2dc;" horiz-adv-x="700" d="M123 1241q6 15 14.5 32.5t26.5 43.5t38.5 46.5t51 35t63.5 14.5q37 0 66.5 -23t44 -50.5t34.5 -50.5t42 -23q53 0 86 96q17 42 51 22l29 -16q12 -7 15.5 -21t-1.5 -26q-10 -33 -31 -69.5t-64.5 -70.5t-94.5 -34q-33 0 -62.5 23.5t-46.5 51t-38 51t-40 23.5q-16 0 -30 -8 t-22.5 -17t-18.5 -27t-13 -25.5t-10 -24.5q-6 -14 -20.5 -19t-28.5 3l-33 16q-22 15 -8 47z" />
<glyph unicode="&#x2000;" horiz-adv-x="999" />
<glyph unicode="&#x2001;" horiz-adv-x="1999" />
<glyph unicode="&#x2002;" horiz-adv-x="999" />
<glyph unicode="&#x2003;" horiz-adv-x="1999" />
<glyph unicode="&#x2004;" horiz-adv-x="666" />
<glyph unicode="&#x2005;" horiz-adv-x="499" />
<glyph unicode="&#x2006;" horiz-adv-x="333" />
<glyph unicode="&#x2007;" horiz-adv-x="333" />
<glyph unicode="&#x2008;" horiz-adv-x="249" />
<glyph unicode="&#x2009;" horiz-adv-x="399" />
<glyph unicode="&#x200a;" horiz-adv-x="111" />
<glyph unicode="&#x2010;" horiz-adv-x="743" d="M127 487l6 39q3 17 14.5 28t26.5 11h391q15 0 23.5 -11t5.5 -28l-6 -39q-3 -15 -14.5 -25.5t-26.5 -10.5h-389q-15 0 -24.5 10.5t-6.5 25.5z" />
<glyph unicode="&#x2011;" horiz-adv-x="743" d="M127 487l6 39q3 17 14.5 28t26.5 11h391q15 0 23.5 -11t5.5 -28l-6 -39q-3 -15 -14.5 -25.5t-26.5 -10.5h-389q-15 0 -24.5 10.5t-6.5 25.5z" />
<glyph unicode="&#x2012;" horiz-adv-x="743" d="M127 487l6 39q3 17 14.5 28t26.5 11h391q15 0 23.5 -11t5.5 -28l-6 -39q-3 -15 -14.5 -25.5t-26.5 -10.5h-389q-15 0 -24.5 10.5t-6.5 25.5z" />
<glyph unicode="&#x2013;" horiz-adv-x="1034" d="M125 494l4 22q3 17 14.5 28t26.5 11h686q15 0 24.5 -11t6.5 -28l-4 -22q-3 -16 -14 -26.5t-25 -10.5h-688q-15 0 -24.5 11t-6.5 26z" />
<glyph unicode="&#x2014;" horiz-adv-x="1439" d="M125 494l4 22q3 17 14.5 28t26.5 11h1092q15 0 24 -11t6 -28l-4 -22q-3 -16 -13.5 -26.5t-25.5 -10.5h-1093q-15 0 -24.5 11t-6.5 26z" />
<glyph unicode="&#x2018;" horiz-adv-x="475" d="M176 1047q0 222 193 397q19 19 32 2l33 -35q14 -17 -6 -37q-147 -139 -147 -262q0 -15 2 -29q30 19 67 19q41 0 62.5 -26t21.5 -60q0 -55 -36.5 -97t-94.5 -42q-61 0 -94 47t-33 123z" />
<glyph unicode="&#x2019;" horiz-adv-x="471" d="M201 920q-14 16 6 36q147 139 147 263q0 14 -2 28q-29 -18 -67 -18q-41 0 -62.5 26t-21.5 60q0 55 36.5 97t94.5 42q61 0 94 -47t33 -123q0 -222 -193 -397q-19 -19 -33 -2z" />
<glyph unicode="&#x201a;" horiz-adv-x="485" d="M47 86q0 55 36.5 97t94.5 42q61 0 94 -47t33 -123q0 -223 -192 -397q-19 -19 -33 -2l-33 35q-14 17 6 37q148 140 148 262q0 14 -2 28q-29 -18 -68 -18q-41 0 -62.5 26t-21.5 60z" />
<glyph unicode="&#x201c;" horiz-adv-x="841" d="M176 1047q0 222 193 397q19 19 32 2l33 -35q14 -17 -6 -37q-147 -139 -147 -262q0 -15 2 -29q30 19 67 19q41 0 62.5 -26t21.5 -60q0 -55 -36.5 -97t-94.5 -42q-61 0 -94 47t-33 123zM543 1047q0 223 192 397q19 19 33 2l33 -35q14 -17 -6 -37q-148 -140 -148 -262 q0 -15 2 -29q30 19 68 19q41 0 62.5 -26t21.5 -60q0 -55 -36.5 -97t-94.5 -42q-61 0 -94 47t-33 123z" />
<glyph unicode="&#x201d;" horiz-adv-x="835" d="M201 920q-14 16 6 36q147 139 147 263q0 14 -2 28q-29 -18 -67 -18q-41 0 -62.5 26t-21.5 60q0 55 36.5 97t94.5 42q61 0 94 -47t33 -123q0 -222 -193 -397q-19 -19 -33 -2zM565 920q-14 16 6 36q148 140 148 263q0 14 -2 28q-29 -18 -68 -18q-41 0 -62.5 26t-21.5 60 q0 55 36.5 97t94.5 42q61 0 94 -47t33 -123q0 -223 -192 -397q-19 -19 -33 -2z" />
<glyph unicode="&#x201e;" horiz-adv-x="849" d="M47 86q0 55 36.5 97t94.5 42q61 0 94 -47t33 -123q0 -223 -192 -397q-19 -19 -33 -2l-33 35q-14 17 6 37q148 140 148 262q0 14 -2 28q-29 -18 -68 -18q-41 0 -62.5 26t-21.5 60zM412 86q0 55 36.5 97t94.5 42q61 0 94 -47t33 -123q0 -222 -193 -397q-19 -19 -33 -2 l-32 35q-14 17 6 37q147 139 147 262q0 14 -2 28q-29 -18 -67 -18q-41 0 -62.5 26t-21.5 60z" />
<glyph unicode="&#x2022;" horiz-adv-x="724" d="M147 494q0 100 71.5 174.5t162.5 74.5q77 0 127.5 -56.5t50.5 -137.5q0 -99 -72.5 -171.5t-167.5 -72.5q-73 0 -122.5 56t-49.5 133z" />
<glyph unicode="&#x2026;" horiz-adv-x="1177" d="M47 82q0 54 38.5 92.5t88.5 38.5q41 0 67.5 -29.5t26.5 -72.5q0 -54 -38 -92.5t-89 -38.5q-41 0 -67.5 30t-26.5 72zM410 82q0 54 38 92.5t89 38.5q41 0 67.5 -29.5t26.5 -72.5q0 -54 -38 -92.5t-89 -38.5q-39 0 -66.5 30t-27.5 72zM778 82q0 54 38 92.5t89 38.5 q41 0 67.5 -29t26.5 -71q0 -54 -38 -93.5t-89 -39.5q-41 0 -67.5 30t-26.5 72z" />
<glyph unicode="&#x202f;" horiz-adv-x="399" />
<glyph unicode="&#x2039;" horiz-adv-x="532" d="M92 459q-11 23 6 49l234 303q20 25 41 25h45q23 0 27.5 -19.5t-9.5 -44.5l-176 -295l80 -291q6 -26 -3.5 -43.5t-33.5 -17.5h-37q-18 0 -26 16z" />
<glyph unicode="&#x203a;" horiz-adv-x="532" d="M58.5 144q-4.5 19 9.5 44l176 295l-80 291q-6 26 3.5 44t33.5 18h37q18 0 26 -17l148 -317q11 -23 -6 -49l-234 -303q-20 -25 -41 -25h-45q-23 0 -27.5 19z" />
<glyph unicode="&#x205f;" horiz-adv-x="499" />
<glyph unicode="&#x20ac;" d="M53 553l2 18q2 15 14 27t27 12h101q4 80 18 154h-96q-15 0 -24.5 10t-8.5 25l2 18q1 15 14.5 27t28.5 12h105q33 124 89 230t133.5 189.5t181.5 131t222 47.5q129 0 216 -41t151 -119q23 -26 -4 -57l-45 -51q-32 -35 -66 2q-52 58 -114 88.5t-150 30.5q-155 0 -273 -128 t-174 -323h562q17 0 26 -10t6 -25l-4 -22q-7 -35 -41 -35h-571q-19 -100 -19 -154h486q17 0 27.5 -10t7.5 -25l-4 -20q-3 -16 -14.5 -26.5t-28.5 -10.5h-471q11 -178 89 -283.5t210 -105.5q106 0 171.5 29t157.5 100q11 10 26 10.5t25 -10.5l46 -59q9 -12 5 -29.5t-16 -28.5 q-100 -84 -201.5 -122.5t-222.5 -38.5q-202 0 -327 146.5t-131 391.5h-113q-15 0 -24 10t-7 25z" />
<glyph unicode="&#x2122;" horiz-adv-x="1429" d="M250 1372l4 23q3 15 14.5 27t24.5 12h356q15 0 24.5 -12t6.5 -27l-4 -23q-3 -17 -14.5 -28t-26.5 -11h-127l-68 -479q-2 -15 -14 -27t-25 -12h-32q-15 0 -23.5 12t-5.5 27l68 479h-129q-14 0 -23 11t-6 28zM668 862l172 551q12 31 41 31h6q23 0 28 -23l91 -434l215 434 q9 23 34 23h7q26 0 30 -31l21 -553q0 -19 -12 -32t-29 -13h-31q-31 0 -31 35l-12 338l-180 -361q-7 -18 -33 -18h-10q-26 0 -29 20l-76 359l-108 -340q-12 -33 -41 -33h-25q-18 0 -26 14t-2 33z" />
<glyph unicode="&#x25fc;" horiz-adv-x="942" d="M0 0v942h942v-942h-942z" />
<glyph unicode="&#xfb03;" horiz-adv-x="1716" d="M86 -440l174 1253h-129q-18 0 -27.5 12.5t-7.5 32.5l6 43q3 20 16.5 32.5t31.5 12.5h129l10 66q33 211 147 316.5t289 105.5q154 0 276 -97q111 117 263 117q176 0 305 -108q11 -8 12.5 -24t-8.5 -30l-37 -51q-9 -12 -18 -15t-16.5 0.5t-22.5 12.5l-17 13 q-17 12 -25.5 17.5t-30.5 16.5t-41 17t-46.5 11t-56.5 5q-53 0 -94 -22t-67.5 -63.5t-42.5 -91t-26 -114.5l-12 -82h549q17 0 28 -13.5t9 -31.5l-123 -856q-3 -18 -17.5 -31.5t-29.5 -13.5h-70q-15 0 -25.5 13.5t-9.5 31.5l109 768h-439l-167 -1253q-3 -18 -18 -32.5 t-30 -14.5h-75q-15 0 -24.5 14t-6.5 33l170 1253h-438l-174 -1253q-3 -18 -18 -32.5t-30 -14.5h-71q-17 0 -26.5 14t-6.5 33zM430 946h438l17 111q13 87 43 155q-22 29 -88.5 55.5t-132.5 26.5q-106 0 -175 -65.5t-92 -216.5z" />
<glyph unicode="&#xfb04;" horiz-adv-x="1757" d="M86 -440l174 1253h-129q-18 0 -27.5 12.5t-7.5 32.5l6 43q3 20 16.5 32.5t31.5 12.5h129l10 66q33 211 147 316.5t289 105.5q161 0 283 -97q111 117 278 117q95 0 169 -40t104 -77l30 76q8 21 37 21h43q14 0 24 -13.5t7 -31.5l-189 -1344q-3 -19 -16.5 -32t-30.5 -13h-71 q-15 0 -25.5 13.5t-7.5 31.5l160 1133q-28 56 -89.5 98.5t-138.5 42.5q-93 0 -161 -60t-87 -188l-18 -125h244q17 0 26.5 -12.5t8.5 -32.5l-9 -43q-3 -19 -16 -32t-31 -13h-243l-168 -1253q-3 -19 -17.5 -33t-29.5 -14h-80q-15 0 -24.5 14t-6.5 33l170 1253h-438l-174 -1253 q-3 -18 -18 -32.5t-30 -14.5h-71q-17 0 -26.5 14t-6.5 33zM430 946h440l17 111q13 87 43 155q-31 31 -95 56.5t-128 25.5q-106 0 -175 -65.5t-92 -216.5z" />
</font>
</defs>
</svg>
