<?xml version="1.0" standalone="no"?>
<!DOCTYPE svg PUBLIC "-//W3C//DTD SVG 1.1//EN" "http://www.w3.org/Graphics/SVG/1.1/DTD/svg11.dtd" >
<svg xmlns="http://www.w3.org/2000/svg">
<metadata>
This is a custom SVG webfont generated by Font Squirrel.
Copyright   : Copyright c 2011 by Red Hat Inc All rights reserved
Designer    : Delve Withrington
Foundry     : Delve Fonts
Foundry URL : httpwwwredhatcom
</metadata>
<defs>
<font id="webfontiqWxLEM5" horiz-adv-x="1290" >
<font-face units-per-em="2048" ascent="1536" descent="-512" />
<missing-glyph horiz-adv-x="471" />
<glyph unicode=" "  horiz-adv-x="471" />
<glyph unicode="&#x09;" horiz-adv-x="471" />
<glyph unicode="&#xa0;" horiz-adv-x="471" />
<glyph unicode="!" horiz-adv-x="565" d="M330 395h-94l-60 609v454h213v-454zM283 -25q-66 0 -110 44t-44 105.5t44 106.5t110 45q63 0 109 -45t46 -106.5t-46 -105.5t-109 -44z" />
<glyph unicode="&#x22;" horiz-adv-x="860" d="M135 860l-43 574h266l-43 -574h-180zM545 860l-43 574h266l-43 -574h-180z" />
<glyph unicode="#" horiz-adv-x="1392" d="M442 0h-182l59 387h-233l27 176h233l51 338h-233l26 176h234l55 357h183l-56 -357h285l55 357h182l-55 -357h234l-27 -176h-233l-52 -338h234l-27 -176h-233l-60 -387h-182l59 387h-284zM580 901l-52 -338h285l51 338h-284z" />
<glyph unicode="$" horiz-adv-x="1196" d="M1010 1174l-197 -66q-27 66 -88 105.5t-152 39.5q-94 0 -147 -45t-53 -127q0 -55 39 -96t100 -68.5t136 -54t149.5 -62.5t136 -84t100.5 -128t39 -185q0 -174 -103.5 -283.5t-267.5 -135.5v-185h-213v187q-141 27 -242.5 115.5t-144.5 222.5l201 73q43 -100 123 -158.5 t184 -58.5q111 0 176.5 57.5t65.5 163.5q0 80 -52 136.5t-130 85t-168 66.5t-168 78t-130 122t-52 194q0 137 90 238.5t247 128.5v166h213v-168q119 -25 198 -97.5t110 -176.5z" />
<glyph unicode="%" horiz-adv-x="1742" d="M428 729q-170 0 -253 108.5t-83 256.5q0 141 83 252.5t253 111.5t253 -108.5t83 -255.5q0 -88 -29.5 -166t-108.5 -138.5t-198 -60.5zM428 893q80 0 122 57.5t42 143.5q0 90 -42 145t-122 55t-122 -56t-42 -144q0 -90 42 -145.5t122 -55.5zM1458 1458l-979 -1483h-194 l979 1483h194zM1315 -25q-170 0 -253 109t-83 256q0 141 83 253t253 112t253 -109t83 -256q0 -88 -30 -166t-108.5 -138.5t-197.5 -60.5zM1315 139q80 0 122 57.5t42 143.5q0 90 -42 145.5t-122 55.5t-122 -56.5t-42 -144.5q0 -90 42 -145.5t122 -55.5z" />
<glyph unicode="&#x26;" horiz-adv-x="1435" d="M1389 0h-283l-123 152q-182 -176 -434 -177q-188 0 -307 111t-119 293q0 154 85 253t234 183q-80 100 -113.5 168t-33.5 152q0 147 100.5 235t251.5 88q147 0 246.5 -93t99.5 -235q0 -119 -65.5 -201.5t-182.5 -154.5l226 -270q39 90 39 190h207q-4 -190 -101 -366z M578 176q154 0 276 133l-289 357q-102 -61 -157.5 -126t-55.5 -151q0 -96 62 -154.5t164 -58.5zM500 1137q0 -33 20.5 -74t40.5 -67l66 -78q162 98 161 204q0 68 -41.5 108t-105.5 40q-61 0 -101 -37t-40 -96z" />
<glyph unicode="'" horiz-adv-x="450" d="M135 860l-43 574h266l-43 -574h-180z" />
<glyph unicode="(" horiz-adv-x="706" d="M602 -266h-209q-250 328 -250 848q0 287 78 512t195 364h209q-90 -106 -179.5 -345t-89.5 -531q0 -156 28 -303.5t71 -255t77.5 -175t69.5 -114.5z" />
<glyph unicode=")" horiz-adv-x="706" d="M313 -266h-209q35 47 70 114.5t78 175t70.5 255t27.5 303.5q0 293 -89 531.5t-179 344.5h209q117 -139 194.5 -364.5t77.5 -511.5q0 -520 -250 -848z" />
<glyph unicode="*" horiz-adv-x="1085" d="M731 600l-141 191l-47 141l-47 -141l-142 -191l-153 113l139 190l115 86h-142l-211 70l60 182l211 -67l112 -80l-39 133v231h193v-231l-41 -135l115 82l211 67l59 -182l-211 -70h-143l116 -86l140 -190z" />
<glyph unicode="+" d="M1126 600h-374v-379h-213v379h-375v205h375v379h213v-379h374v-205z" />
<glyph unicode="," horiz-adv-x="456" d="M164 -289l-80 51q37 33 77 93.5t48 119.5q-55 4 -96 44t-41 100q0 68 45 111.5t106 43.5q70 0 116 -48t46 -138q0 -113 -62.5 -215.5t-158.5 -161.5z" />
<glyph unicode="-" horiz-adv-x="808" d="M655 506h-501v205h501v-205z" />
<glyph unicode="." horiz-adv-x="456" d="M227 -25q-66 0 -109.5 44t-43.5 105.5t44 106.5t109 45q63 0 109.5 -45t46.5 -106.5t-46.5 -105.5t-109.5 -44z" />
<glyph unicode="/" horiz-adv-x="1009" d="M184 -266h-215l805 1724h215z" />
<glyph unicode="0" horiz-adv-x="1331" d="M666 -25q-141 0 -246 64.5t-160 175.5t-80.5 234.5t-25.5 267.5q0 135 24.5 257t78.5 235.5t158.5 181t250.5 67.5q141 0 245.5 -64.5t159.5 -175t81 -234.5t26 -267q0 -135 -25 -257t-79 -235.5t-158.5 -181.5t-249.5 -68zM666 180q84 0 144 47t90 129t43 170t13 191 q0 109 -13 198t-45 168.5t-91 124.5t-141 45q-84 0 -144.5 -47t-90.5 -129t-43 -170t-13 -190q0 -109 13 -198t45 -169t91.5 -125t141.5 -45z" />
<glyph unicode="1" horiz-adv-x="827" d="M520 0h-213v1112h-235v158q231 0 284 164h164v-1434z" />
<glyph unicode="2" horiz-adv-x="1261" d="M350 1063l-194 88q53 139 183 223t302 84q215 0 342 -117.5t127 -306.5q0 -117 -51 -205t-123 -140t-197 -118q-299 -156 -346 -362h729v-209h-989q0 494 516 760q113 57 176.5 121.5t63.5 158.5q0 90 -70.5 151.5t-179.5 61.5q-215 0 -289 -190z" />
<glyph unicode="3" horiz-adv-x="1239" d="M604 -25q-184 0 -313 88.5t-191 241.5l199 80q90 -205 305 -205q123 0 202 58.5t79 175.5q0 100 -68.5 164.5t-206.5 64.5h-110v205h110q100 0 160.5 54t60.5 140q0 100 -59 155.5t-168 55.5q-172 0 -254 -161l-198 75q51 135 169.5 213t288.5 78q193 0 318 -115.5 t125 -279.5q0 -217 -185 -311q238 -94 238 -330q0 -211 -139.5 -329t-362.5 -118z" />
<glyph unicode="4" horiz-adv-x="1325" d="M1016 0h-213v326h-772v137l733 971h252v-912h186v-196h-186v-326zM313 522h490v654z" />
<glyph unicode="5" horiz-adv-x="1241" d="M395 639l-231 86l49 709h805v-205h-606l-31 -365q106 78 274 78q217 0 336 -136t119 -325q0 -227 -153.5 -366.5t-395.5 -139.5q-289 0 -438 131l127 170q45 -29 76.5 -46t95 -33.5t139.5 -16.5q147 0 237.5 82t90.5 213q0 127 -72 194.5t-192 67.5q-142 0 -230 -98z" />
<glyph unicode="6" horiz-adv-x="1228" d="M631 -25q-242 0 -370 155t-128 400q0 371 195.5 616t589.5 312v-205q-193 -31 -335.5 -143.5t-195.5 -310.5q106 102 295 102q197 0 320.5 -129t123.5 -336q0 -205 -137 -333t-358 -128zM631 180q123 0 198.5 68.5t75.5 187.5q0 123 -75.5 191.5t-198.5 68.5t-200 -69.5 t-77 -190.5q0 -119 77 -187.5t200 -68.5z" />
<glyph unicode="7" horiz-adv-x="1099" d="M592 0h-221q2 354 102 640t309 585h-731v209h967v-232q-219 -254 -321.5 -585.5t-104.5 -616.5z" />
<glyph unicode="8" horiz-adv-x="1259" d="M629 -25q-221 0 -358.5 125t-137.5 320q0 246 240 364q-178 100 -178 299q0 162 119.5 268.5t314 106.5t315.5 -106.5t121 -268.5q0 -197 -180 -299q242 -117 241 -364q0 -195 -138 -320t-359 -125zM629 180q121 0 198.5 68.5t77.5 177.5q0 106 -78.5 180t-197.5 74 t-197 -74t-78 -180q0 -109 77 -177.5t198 -68.5zM629 885q96 0 157.5 54t61.5 132q0 82 -60.5 132t-158.5 50q-96 0 -156.5 -50t-60.5 -132q0 -78 61.5 -132t155.5 -54z" />
<glyph unicode="9" horiz-adv-x="1228" d="M352 -25v218q420 23 496 444q-37 -43 -111.5 -74t-173.5 -31q-203 0 -332 128t-129 337q0 205 138.5 333t359.5 128q248 0 372 -152.5t124 -402.5q0 -416 -186.5 -663t-557.5 -265zM598 750q125 0 198.5 66.5t73.5 182.5q0 109 -75.5 175.5t-194.5 66.5 q-121 0 -196.5 -66.5t-75.5 -177.5q0 -117 72.5 -182t197.5 -65z" />
<glyph unicode=":" horiz-adv-x="456" d="M227 690q-66 0 -109.5 44t-43.5 105.5t44 106.5t109 45q63 0 109.5 -45t46.5 -106.5t-46.5 -105.5t-109.5 -44zM227 -25q-66 0 -109.5 44t-43.5 105.5t44 106.5t109 45q63 0 109.5 -45t46.5 -106.5t-46.5 -105.5t-109.5 -44z" />
<glyph unicode=";" horiz-adv-x="456" d="M225 690q-66 0 -109.5 44t-43.5 105.5t44 106.5t109 45q63 0 109.5 -45t46.5 -106.5t-46.5 -105.5t-109.5 -44zM164 -289l-80 51q37 33 77 93.5t48 119.5q-55 4 -96 44t-41 100q0 68 45 111.5t106 43.5q70 0 116 -48t46 -138q0 -113 -62.5 -215.5t-158.5 -161.5z" />
<glyph unicode="&#x3c;" d="M1126 436v-215l-962 391v181l962 391v-215l-671 -267z" />
<glyph unicode="=" d="M1126 401h-962v205h962v-205zM1126 799h-962v205h962v-205z" />
<glyph unicode="&#x3e;" d="M1126 793v-181l-962 -391v215l672 266l-672 267v215z" />
<glyph unicode="?" horiz-adv-x="1026" d="M600 389h-213v41q0 109 37 188.5t89 127t103.5 88t88 95t36.5 124.5q0 92 -59 148t-166 56q-125 0 -193.5 -72.5t-68.5 -205.5h-213q0 221 131 350t344 129q207 0 322.5 -113.5t115.5 -291.5q0 -92 -36.5 -164t-88.5 -117l-103 -90q-52 -45 -89 -108.5t-37 -145.5v-39z M492 -25q-66 0 -110 44t-44 105.5t44 106.5t110 45q63 0 109 -45t46 -106.5t-46 -105.5t-109 -44z" />
<glyph unicode="@" horiz-adv-x="1677" d="M1112 172l-43 -182q-92 -14 -217 -15q-324 0 -526.5 189.5t-202.5 525.5q0 334 217 551t532 217q305 0 493.5 -178t188.5 -438q0 -217 -114.5 -363.5t-272.5 -146.5q-55 0 -98 32.5t-51 88.5q-82 -129 -240 -129q-131 0 -213 96t-82 254q0 162 105.5 293t265.5 131 q141 0 203 -119l16 92h182l-65 -346q-29 -154 -29 -188q0 -51 35 -52q70 0 128 106.5t58 248.5q0 195 -135 322.5t-366 127.5q-250 0 -410 -173t-160 -429q0 -258 145.5 -401.5t403.5 -143.5q133 0 252 29zM809 500q88 0 144.5 78.5t56.5 173.5q0 78 -37 124t-103 46 q-88 0 -145 -74t-57 -176q0 -78 37.5 -125t103.5 -47z" />
<glyph unicode="A" horiz-adv-x="1425" d="M1339 0h-221l-114 330h-580l-117 -330h-221l518 1434h219zM938 518l-174 488q-37 100 -49 161q-18 -74 -49 -161l-177 -488h449z" />
<glyph unicode="B" horiz-adv-x="1363" d="M184 0v1434h543q238 0 345.5 -108.5t107.5 -274.5q0 -92 -50.5 -171t-146.5 -126q127 -45 187.5 -135.5t60.5 -198.5q0 -78 -25.5 -148.5t-79 -133t-148.5 -100.5t-220 -38h-574zM397 197h377q129 0 184.5 61t55.5 152q0 236 -301 235h-316v-448zM397 842h295 q131 0 201 54t70 144q0 197 -230 197h-336v-395z" />
<glyph unicode="C" horiz-adv-x="1331" d="M729 -25q-129 0 -232.5 43t-170 115t-111.5 170t-63.5 200.5t-18.5 213.5q0 131 33 256t99.5 236.5t186 180t277.5 68.5q188 0 313 -83t175 -201l-195 -91q-55 88 -121.5 129t-171.5 41q-102 0 -178 -49t-117 -131t-60.5 -171t-19.5 -185q0 -213 96.5 -375t278.5 -162 q180 0 291 185l199 -76q-136 -314 -490 -314z" />
<glyph unicode="D" horiz-adv-x="1402" d="M184 0v1434h402q180 0 316 -61.5t214 -166t116 -227.5t38 -262q0 -133 -36 -253t-111.5 -227.5t-216 -172t-328.5 -64.5h-394zM397 201h215q117 0 205 46t137.5 122.5t72 164t22.5 183.5q0 215 -104.5 365.5t-309.5 150.5h-238v-1032z" />
<glyph unicode="E" horiz-adv-x="1230" d="M1118 0h-934v1434h889v-201h-676v-393h437v-201h-437v-438h721v-201z" />
<glyph unicode="F" horiz-adv-x="1144" d="M397 0h-213v1434h889v-201h-676v-393h437v-201h-437v-639z" />
<glyph unicode="G" horiz-adv-x="1413" d="M758 -25q-160 0 -284 62.5t-195.5 169t-108.5 235.5t-37 275q0 135 39 264t112.5 237.5t196.5 174t277 65.5q188 0 299.5 -72.5t189.5 -199.5l-192 -111q-121 174 -297 174q-90 0 -161 -32.5t-116 -86t-74.5 -124t-41 -142t-11.5 -147.5q0 -225 101.5 -379t302.5 -154 q133 0 218 87t85 216v29h-258v201h477v-187q0 -262 -146.5 -408.5t-375.5 -146.5z" />
<glyph unicode="H" horiz-adv-x="1447" d="M1264 0h-213v639h-654v-639h-213v1434h213v-594h654v594h213v-1434z" />
<glyph unicode="I" horiz-adv-x="602" d="M408 0h-213v1434h213v-1434z" />
<glyph unicode="J" horiz-adv-x="1157" d="M506 -25q-156 0 -274.5 70t-180.5 201l185 90q76 -156 270 -156q119 0 191.5 71t72.5 259v924h213v-953q0 -143 -43 -246.5t-115.5 -157.5t-151.5 -78t-167 -24z" />
<glyph unicode="K" horiz-adv-x="1386" d="M1305 0h-250l-404 750l-254 -308v-442h-213v1434h213v-695l553 695h246l-401 -504z" />
<glyph unicode="L" horiz-adv-x="1189" d="M1098 0h-914v1434h213v-1229h701v-205z" />
<glyph unicode="M" horiz-adv-x="1646" d="M1462 0h-213v784l6 215l-84 -221l-346 -803l-348 809l-86 215l6 -215v-784h-213v1434h215l385 -895l39 -105l41 105l383 895h215v-1434z" />
<glyph unicode="N" horiz-adv-x="1454" d="M1270 0h-201l-620 973l-58 106l6 -106v-973h-213v1434h215l605 -957l59 -110l-6 108v959h213v-1434z" />
<glyph unicode="O" horiz-adv-x="1515" d="M758 -25q-133 0 -241.5 43t-178.5 115t-117 170t-67.5 200.5t-20.5 213t20.5 213t67.5 201t117 170t178.5 114.5t241.5 43t241.5 -43t178 -114.5t116.5 -170t67.5 -201t20.5 -213t-20.5 -213t-67.5 -200.5t-116.5 -170t-178 -115t-241.5 -43zM757.5 180 q106.5 0 188.5 50.5t127 132t66.5 171t21.5 183.5q0 98 -21.5 189t-66.5 171t-127 128t-188.5 48t-188.5 -50t-127 -132t-66.5 -171t-21.5 -183q0 -98 21.5 -189.5t66.5 -171.5t127 -128t188.5 -48z" />
<glyph unicode="P" horiz-adv-x="1314" d="M397 0h-213v1434h576q244 0 358.5 -127t114.5 -312q0 -172 -119 -305t-354 -133h-363v-557zM397 762h375q123 0 181.5 68.5t58.5 164.5q0 92 -56.5 163t-183.5 71h-375v-467z" />
<glyph unicode="Q" horiz-adv-x="1515" d="M758 -25q-133 0 -241.5 43t-178.5 115t-117 170t-67.5 200.5t-20.5 213t20.5 213t67.5 201t117 170t178.5 114.5t241.5 43t241.5 -43t178 -114.5t116.5 -170t67.5 -201t20.5 -212.5q0 -178 -54 -337t-169 -263l96 -144l-163 -110l-103 151q-106 -39 -231 -39zM758 180 q63 0 108 15l-108 163l168 111l106 -162q129 152 129 410q0 98 -21.5 189t-66.5 171t-127 128t-188.5 48t-188.5 -50t-127 -132t-66.5 -171t-21.5 -183q0 -98 21.5 -189.5t66.5 -171.5t127.5 -128t188.5 -48z" />
<glyph unicode="R" horiz-adv-x="1384" d="M397 0h-213v1434h604q244 0 353.5 -121t109.5 -303q0 -137 -78.5 -251t-232.5 -155l295 -604h-244l-282 586h-312v-586zM397 791h396q123 0 180 62t57 157q0 90 -54 154.5t-183 64.5h-396v-438z" />
<glyph unicode="S" horiz-adv-x="1236" d="M1051 1174l-197 -66q-29 66 -95.5 105.5t-166.5 39.5q-102 0 -160.5 -45t-58.5 -127q0 -63 55 -109t137 -73t178.5 -66.5t178.5 -85t137 -134.5t55 -210q0 -201 -137 -314.5t-352 -113.5q-190 0 -329.5 93.5t-193.5 255.5l201 73q45 -100 131 -158.5t199 -58.5 q119 0 189.5 57.5t70.5 163.5q0 94 -77 154.5t-185.5 96.5t-217 79t-185 131t-76.5 221q0 158 122.5 266.5t333.5 108.5q176 0 290 -77.5t153 -206.5z" />
<glyph unicode="T" horiz-adv-x="1208" d="M1116 1229h-405v-1229h-213v1229h-406v205h1024v-205z" />
<glyph unicode="U" horiz-adv-x="1427" d="M713 -25q-244 0 -391.5 134.5t-147.5 433.5v891h213v-891q0 -201 86 -282t239.5 -81t240.5 81t87 282v891h213v-891q0 -299 -145 -433.5t-395 -134.5z" />
<glyph unicode="V" horiz-adv-x="1357" d="M1276 1434l-490 -1434h-213l-491 1434h229l326 -1000q31 -94 45 -164q14 70 45 164l322 1000h227z" />
<glyph unicode="W" horiz-adv-x="1744" d="M1438 1434h215l-310 -1434h-192l-248 930q-31 111 -35 155q-4 -45 -34 -155l-242 -930h-193l-307 1434h219l178 -883q27 -139 31 -166q2 27 37 166l225 883h179l231 -881q31 -115 37 -164q6 53 28 164z" />
<glyph unicode="X" horiz-adv-x="1331" d="M348 0h-246l441 741l-410 693h246l287 -486l286 486h246l-410 -693l441 -741h-246l-317 535z" />
<glyph unicode="Y" horiz-adv-x="1363" d="M788 0h-213v561l-503 873h243l367 -656l367 656h243l-504 -871v-563z" />
<glyph unicode="Z" horiz-adv-x="1355" d="M1223 0h-1110v172l827 1057h-780v205h1063v-172l-830 -1057h830v-205z" />
<glyph unicode="[" horiz-adv-x="761" d="M680 -266h-475v1724h475v-201h-262v-1323h262v-200z" />
<glyph unicode="\" horiz-adv-x="1009" d="M989 -266h-215l-805 1724h215z" />
<glyph unicode="]" horiz-adv-x="761" d="M557 1458v-1724h-475v200h262v1323h-262v201h475z" />
<glyph unicode="^" d="M1147 717h-219l-283 471l-283 -471h-219l412 741h180z" />
<glyph unicode="_" horiz-adv-x="1024" d="M1034 -362h-1044v184h1044v-184z" />
<glyph unicode="`" horiz-adv-x="819" d="M668 1180h-217l-365 319h291z" />
<glyph unicode="a" horiz-adv-x="1089" d="M956 678v-678h-204v90q-111 -115 -287 -115q-166 0 -269.5 91.5t-103.5 259.5q0 170 117 258t285 88q154 0 258 -62v58q0 117 -53.5 166t-170.5 49q-172 0 -299 -95l-63 175q158 109 391 108q78 0 139.5 -13.5t125 -51t99 -121.5t35.5 -207zM504 164q147 0 248 112v160 q-96 51 -224 51q-102 0 -166.5 -39.5t-64.5 -121.5q0 -76 53.5 -119t153.5 -43z" />
<glyph unicode="b" horiz-adv-x="1150" d="M614 -25q-150 0 -247 109v-84h-213v1380l213 99v-512q94 104 247 104q195 0 315 -146.5t120 -400.5q0 -262 -116 -405.5t-319 -143.5zM588 176q119 0 183.5 93t64.5 255q0 168 -63.5 257t-184.5 89q-74 0 -133.5 -35.5t-87.5 -82.5v-457q74 -119 221 -119z" />
<glyph unicode="c" horiz-adv-x="1060" d="M559 -25q-211 0 -334 145.5t-123 401.5t123 402.5t334 146.5q305 0 395 -270l-202 -70q-51 135 -185 135q-119 0 -183.5 -91t-64.5 -253q0 -160 63.5 -251t176.5 -91q152 0 197 154l202 -64q-84 -295 -399 -295z" />
<glyph unicode="d" horiz-adv-x="1150" d="M537 -25q-199 0 -317 146.5t-118 402.5q0 254 120 400.5t315 146.5q154 0 247 -98v407l213 99v-1479h-213v74q-87 -99 -247 -99zM567 176q143 0 217 119v461q-29 47 -85 80.5t-132 33.5q-121 0 -186.5 -90t-65.5 -256q0 -156 67.5 -252t184.5 -96z" />
<glyph unicode="e" horiz-adv-x="1120" d="M578 -25q-219 0 -347.5 146.5t-128.5 402.5t129 401.5t347 145.5q197 0 323.5 -125t126.5 -364q0 -88 -8 -138h-705q2 -125 81 -202.5t184 -77.5q135 0 217 106l139 -143q-127 -152 -358 -152zM578 883q-109 0 -181.5 -64.5t-81.5 -202.5h500q-2 135 -71.5 201t-165.5 66 z" />
<glyph unicode="f" horiz-adv-x="686" d="M676 862h-236v-862h-213v862h-155v185h155v167q0 133 67.5 188.5t172.5 55.5q111 0 209 -49v-176q-88 37 -150 37q-86 0 -86 -94v-129h236v-185z" />
<glyph unicode="g" horiz-adv-x="1150" d="M504 -410l-107 164q217 12 302 72.5t85 165.5v92q-88 -109 -252 -109q-188 0 -309 142.5t-121 406.5q0 254 120 400.5t315 146.5q154 0 247 -98v74h213v-967q0 -240 -106 -348q-117 -122 -387 -142zM571 176q139 0 213 123v453q-33 53 -91 85.5t-122 32.5 q-125 0 -190.5 -89t-65.5 -257q0 -160 68.5 -254t187.5 -94z" />
<glyph unicode="h" horiz-adv-x="1157" d="M1014 0h-213v625q0 125 -57.5 185t-151.5 60q-225 0 -225 -241v-629h-213v1380l213 99v-533q98 125 270 125q377 0 377 -446v-625z" />
<glyph unicode="i" horiz-adv-x="524" d="M369 0h-213v1047h213v-1047zM262 1210q-53 0 -91 38t-38 91.5t38 91t91 37.5t91 -37.5t38 -91t-38 -91.5t-91 -38z" />
<glyph unicode="j" horiz-adv-x="524" d="M-27 -438l-102 157q162 35 223.5 90.5t61.5 167.5v1070h213v-998q0 -229 -99 -332q-109 -114 -297 -155zM262 1210q-53 0 -91 38t-38 91.5t38 91t91 37.5t91 -37.5t38 -91t-38 -91.5t-91 -38z" />
<glyph unicode="k" horiz-adv-x="1126" d="M367 0h-213v1378l213 101v-756l309 324h262l-287 -291l393 -756h-233l-309 602l-135 -135v-467z" />
<glyph unicode="l" horiz-adv-x="540" d="M377 0h-213v1378l213 101v-1479z" />
<glyph unicode="m" horiz-adv-x="1738" d="M1595 0h-213v627q0 244 -192 243q-90 0 -149.5 -66.5t-59.5 -187.5v-616h-213v627q0 244 -193 243q-90 0 -149 -66.5t-59 -187.5v-616h-213v1047h213v-97q84 121 264 121q195 0 278 -149q96 150 310 149q170 0 273 -98.5t103 -296.5v-676z" />
<glyph unicode="n" horiz-adv-x="1157" d="M1014 0h-213v625q0 125 -57.5 185t-151.5 60q-225 0 -225 -241v-629h-213v1047h213v-101q98 125 270 125q377 0 377 -446v-625z" />
<glyph unicode="o" horiz-adv-x="1161" d="M579.5 -25q-221.5 0 -349.5 145.5t-128 401.5t128 402.5t349.5 146.5t350.5 -146.5t129 -402.5t-129 -401.5t-350.5 -145.5zM580 176q123 0 194.5 92t71.5 254t-72 255t-194 93q-121 0 -193 -93t-72 -255q0 -160 72 -253t193 -93z" />
<glyph unicode="p" horiz-adv-x="1150" d="M618 -25q-160 0 -251 115v-403l-213 -99v1459h213v-84q98 109 251 108q199 0 315 -146.5t116 -402.5q0 -254 -118 -400.5t-313 -146.5zM588 176q121 0 184.5 89t63.5 257q0 156 -65.5 252t-182.5 96q-147 0 -221 -118v-455q90 -121 221 -121z" />
<glyph unicode="q" horiz-adv-x="1150" d="M537 -25q-195 0 -315 146.5t-120 400.5q0 256 118 402.5t317 146.5q150 0 247 -108v84h213v-1360l-213 -97v500q-93 -115 -247 -115zM563 176q133 0 221 121v455q-74 119 -221 118q-117 0 -182.5 -96t-65.5 -252q0 -168 63.5 -257t184.5 -89z" />
<glyph unicode="r" horiz-adv-x="827" d="M367 0h-213v1047h213v-127q70 152 233 151q102 0 176 -63l-31 -197q-76 51 -165 51q-86 0 -149.5 -64.5t-63.5 -209.5v-588z" />
<glyph unicode="s" horiz-adv-x="972" d="M477 -25q-123 0 -231.5 46.5t-163.5 123.5l151 129q113 -106 240 -106q184 0 184 113q0 29 -14 51t-50 42.5t-61.5 33t-82.5 34.5l-82 33q-61 27 -98.5 48.5t-79.5 57t-62.5 86t-20.5 115.5q0 135 103.5 212t261.5 77q236 0 367 -158l-154 -122q-84 88 -213 88 q-68 0 -107.5 -26t-39.5 -71q0 -16 6 -30.5t22.5 -28.5t29.5 -23.5t42 -22.5t46 -19.5l56 -21.5l56 -22q66 -27 108.5 -49t88.5 -61t68.5 -94.5t22.5 -128.5q0 -147 -105.5 -226.5t-287.5 -79.5z" />
<glyph unicode="t" horiz-adv-x="776" d="M457 -25q-233 0 -234 261v626h-162v185h162v329l213 103v-432h248v-185h-248v-571q0 -119 103 -119q76 0 155 49l-26 -198q-94 -48 -211 -48z" />
<glyph unicode="u" horiz-adv-x="1157" d="M1004 0h-213v100q-98 -125 -271 -125q-377 0 -377 447v625h213v-625q0 -125 57.5 -185.5t151.5 -60.5q225 0 226 242v629h213v-1047z" />
<glyph unicode="v" horiz-adv-x="1067" d="M1016 1047l-383 -1047h-199l-383 1047h213l242 -687q23 -68 29 -92q6 25 28 92l240 687h213z" />
<glyph unicode="w" horiz-adv-x="1486" d="M1415 1047l-278 -1047h-189l-174 608q-25 84 -33 131q-10 -66 -30 -133l-172 -606h-189l-278 1047h209l147 -652q14 -61 21 -106q6 39 22 106l174 652h197l174 -652q16 -68 22 -106q6 45 21 106l147 652h209z" />
<glyph unicode="x" horiz-adv-x="1085" d="M1014 0h-244l-174 270q-14 23 -53 95q-18 -41 -54 -95l-174 -270h-243l348 545l-320 502h244l145 -228q39 -66 54 -94q39 72 53 94l145 228h244l-321 -502z" />
<glyph unicode="y" horiz-adv-x="1101" d="M1051 1047l-553 -1444h-217l161 415l-391 1029h211l258 -685q18 -47 29 -92q10 45 29 92l260 685h213z" />
<glyph unicode="z" horiz-adv-x="1046" d="M922 0h-809v174l555 684h-514v189h770v-168l-555 -691h553v-188z" />
<glyph unicode="{" horiz-adv-x="749" d="M668 -78v-188q-201 4 -316.5 126t-115.5 351v121q0 78 -32 125t-91 47h-31v186h31q59 0 91 47t32 125v119q0 229 115.5 351t316.5 126v-188q-219 -10 -219 -252v-133q0 -145 -47.5 -209t-147.5 -80q100 -16 147.5 -79.5t47.5 -209.5v-133q0 -242 219 -252z" />
<glyph unicode="|" horiz-adv-x="561" d="M387 -420h-213v2069h213v-2069z" />
<glyph unicode="}" horiz-adv-x="749" d="M82 -266v188q219 10 219 252v133q0 145 47 209t148 80q-100 16 -147.5 79.5t-47.5 209.5v133q0 242 -219 252v188q201 -4 316.5 -126t115.5 -351v-119q0 -78 32 -125t91 -47h31v-186h-31q-59 0 -91 -47t-32 -125v-121q0 -229 -115.5 -351t-316.5 -126z" />
<glyph unicode="~" d="M852 541q-94 0 -226 59t-185.5 59t-86 -32.5t-37.5 -85.5h-153q0 139 67.5 231t206.5 92q94 0 226.5 -59.5t185.5 -59.5t86 33t37 86h153q0 -139 -67.5 -231t-206.5 -92z" />
<glyph unicode="&#xa1;" horiz-adv-x="565" d="M389 -410h-213v453l60 608h94l59 -608v-453zM283 770q-66 0 -110 44t-44 105.5t44 106.5t110 45q63 0 109 -45t46 -106.5t-46 -105.5t-109 -44z" />
<glyph unicode="&#xa2;" horiz-adv-x="1060" d="M639 -25h-205v209q-158 41 -245 179.5t-87 353.5t88.5 353t243.5 179v209h205v-198q240 -35 315 -265l-202 -69q-51 135 -185 135q-119 0 -183.5 -91t-64.5 -253q0 -160 63.5 -251t176.5 -91q152 0 197 153l202 -63q-74 -254 -319 -289v-201z" />
<glyph unicode="&#xa3;" horiz-adv-x="1206" d="M1145 0h-981v213q90 43 132 151.5t42 215.5h-184v188h135q-74 152 -74 279q0 170 123 290.5t352 120.5q240 0 436 -143l-84 -203q-49 43 -80.5 65.5t-107.5 49t-164 26.5q-127 0 -190.5 -60t-63.5 -146q0 -45 13.5 -88.5t39 -100.5t37.5 -90h342v-188h-309 q0 -217 -151 -375h737v-205z" />
<glyph unicode="&#xa4;" d="M645 176q-162 0 -274 74l-138 -139l-159 159l145 146q-61 111 -61 266q0 152 63 268l-147 148l153 153l140 -139q121 78 278.5 78t274.5 -76l137 137l160 -159l-144 -144q61 -119 62 -266q0 -158 -66 -272l148 -146l-154 -153l-141 141q-117 -76 -277 -76zM645 381 q121 0 197 85t76 216t-76 217t-197 86t-195.5 -86t-74.5 -217t74.5 -216t195.5 -85z" />
<glyph unicode="&#xa5;" horiz-adv-x="1173" d="M1143 1434l-441 -760h283v-185h-293v-135h293v-184h-293v-170h-213v170h-301v184h301v135h-301v185h289l-436 760h241l314 -564l313 564h244z" />
<glyph unicode="&#xa6;" horiz-adv-x="561" d="M387 778h-213v697h213v-697zM387 -246h-213v697h213v-697z" />
<glyph unicode="&#xa7;" horiz-adv-x="1071" d="M543 -246q-143 0 -259 52.5t-182 138.5l156 133q119 -119 283 -119q207 0 207 139q0 23 -8.5 43.5t-30 40t-40 32.5t-55 31.5t-58.5 27.5l-68 29l-66 28q-72 31 -111 51t-89 58t-72.5 89.5t-22.5 118.5q0 152 137 221q-137 92 -137 265q0 152 113.5 238.5t287.5 86.5 q258 0 400 -172l-162 -129q-92 96 -238 96q-84 0 -132 -31.5t-48 -88.5q0 -33 20.5 -59.5t73 -54.5t86 -42t113.5 -45q63 -25 99 -41.5t86.5 -47t77 -63t46 -83t19.5 -111.5q0 -152 -119 -221q119 -98 119 -261q0 -166 -112.5 -258t-313.5 -92zM748 569q0 35 -20.5 64 t-70 54.5t-84 39.5t-110.5 41q-115 -20 -115 -106q0 -14 5 -29t16.5 -27t24 -22.5t33.5 -21.5l38 -19q16 -8 47 -20l50 -18l56 -21q37 -13 58 -21q72 28 72 106z" />
<glyph unicode="&#xa8;" horiz-adv-x="819" d="M225.5 1210q-53.5 0 -91.5 38t-38 91.5t38 91t91.5 37.5t91 -37.5t37.5 -91t-37.5 -91.5t-91 -38zM594 1210q-53 0 -91 38t-38 91.5t38 91t91 37.5t91 -37.5t38 -91t-38 -91.5t-91 -38z" />
<glyph unicode="&#xa9;" horiz-adv-x="1728" d="M872 270q-96 0 -168.5 39t-112.5 105.5t-59.5 142.5t-19.5 160q0 174 89 310t271 136q115 0 193 -54t109 -130l-136 -64q-35 53 -71.5 77t-94.5 24q-104 0 -153 -90t-49 -209t52 -209t150 -90q94 0 166 106l138 -49q-87 -205 -304 -205zM864.5 -25q-315.5 0 -528.5 213 t-213 528.5t213 528.5t528.5 213t528.5 -213t213 -528.5t-213 -528.5t-528.5 -213zM864 123q252 0 418 170t166 424t-166 424t-418 170t-417.5 -170t-165.5 -424t165.5 -424t417.5 -170z" />
<glyph unicode="&#xaa;" horiz-adv-x="894" d="M782 580h-180v61q-90 -82 -225 -82t-220 75t-85 214t98 213t231 74q111 0 201 -43v34q0 92 -41 131t-131 39q-135 0 -242 -79l-53 151q127 90 318 90q66 0 115.5 -11t103 -42t82 -99.5t28.5 -170.5v-555zM410 721q109 0 192 80v135q-82 39 -172 39q-74 0 -124 -32 t-50 -95q0 -59 41 -93t113 -34z" />
<glyph unicode="&#xab;" horiz-adv-x="1073" d="M604 0h-231l-312 524l312 523h231l-311 -523zM1042 0h-231l-311 524l311 523h231l-311 -523z" />
<glyph unicode="&#xac;" d="M1126 344h-213v420h-749v205h962v-625z" />
<glyph unicode="&#xad;" horiz-adv-x="808" d="M655 506h-501v205h501v-205z" />
<glyph unicode="&#xae;" horiz-adv-x="1728" d="M723 285h-152v864h340q150 0 217.5 -74t67.5 -184q0 -82 -46 -150.5t-134 -95.5l87 -180l89 -180h-176l-166 346h-127v-346zM723 776h188q125 0 125 115q0 113 -125 113h-188v-228zM864.5 -25q-315.5 0 -528.5 213t-213 528.5t213 528.5t528.5 213t528.5 -213t213 -528.5 t-213 -528.5t-528.5 -213zM864 123q252 0 418 170t166 424t-166 424t-418 170t-417.5 -170t-165.5 -424t165.5 -424t417.5 -170z" />
<glyph unicode="&#xaf;" horiz-adv-x="819" d="M748 1223h-676v176h676v-176z" />
<glyph unicode="&#xb0;" horiz-adv-x="819" d="M409.5 1124q63.5 0 106.5 46.5t43 113.5q0 70 -42 114t-107.5 44t-108.5 -44t-43 -114q0 -68 44 -114t107.5 -46zM409.5 928q-151.5 0 -256 103.5t-104.5 252.5q0 152 104.5 253t256 101t255 -101t103.5 -253q0 -150 -103.5 -253t-255 -103z" />
<glyph unicode="&#xb1;" d="M1126 723h-374v-317h-213v317h-375v205h375v317h213v-317h374v-205zM1126 0h-962v205h962v-205z" />
<glyph unicode="&#xb2;" horiz-adv-x="731" d="M651 909h-600q0 172 84 294t217 192q43 23 63.5 36t40 39.5t19.5 57.5q0 43 -30.5 71.5t-86.5 28.5q-117 0 -143 -133l-166 39q23 111 109 182.5t200 71.5q135 0 215 -74t80 -190q0 -55 -16 -96.5t-53 -75t-70 -54t-94 -51.5q-119 -61 -170 -178h401v-160z" />
<glyph unicode="&#xb3;" horiz-adv-x="710" d="M338 893q-117 0 -198 66.5t-115 185.5l168 45q16 -68 58 -102.5t93 -34.5q53 0 88 29.5t35 80.5q0 47 -33 79t-98 32h-64v160h62q51 0 76.5 26.5t25.5 69.5t-25.5 70.5t-72.5 27.5q-84 0 -119 -100l-164 59q39 92 113 146.5t174 54.5q123 0 196.5 -73t73.5 -177 q0 -113 -100 -178q61 -27 96 -81t35 -118q0 -123 -84 -195.5t-221 -72.5z" />
<glyph unicode="&#xb4;" horiz-adv-x="819" d="M733 1499l-364 -319h-217l290 319h291z" />
<glyph unicode="&#xb5;" horiz-adv-x="1157" d="M1004 0h-213v100q-98 -125 -250 -125q-121 0 -185 84v-368l-213 -101v1457h213v-625q0 -137 53.5 -191.5t155.5 -54.5q225 0 226 242v629h213v-1047z" />
<glyph unicode="&#xb6;" horiz-adv-x="1286" d="M1122 -147l-213 -97v1473h-176v-1542l-213 -97v975q-240 0 -359.5 131t-119.5 303q0 182 114.5 308.5t358.5 126.5h608v-1581z" />
<glyph unicode="&#xb7;" horiz-adv-x="456" d="M227 565q-66 0 -109.5 44t-43.5 105.5t44 106.5t109 45q63 0 109.5 -45t46.5 -106.5t-46.5 -105.5t-109.5 -44z" />
<glyph unicode="&#xb8;" horiz-adv-x="819" d="M399 -489q-133 0 -204 77l104 76q25 -31 80 -31q45 0 73.5 25t28.5 66q0 39 -31.5 63.5t-78.5 24.5q-49 0 -82 -21l-41 51l143 178h117l-76 -122q113 0 169 -50.5t56 -126.5q0 -94 -70.5 -152t-187.5 -58z" />
<glyph unicode="&#xb9;" horiz-adv-x="409" d="M301 909h-168v684h-113v125q111 0 146 56h135v-865z" />
<glyph unicode="&#xba;" horiz-adv-x="950" d="M473 559q-180 0 -285.5 119t-105.5 330t105.5 330.5t285.5 119.5t287.5 -119.5t107.5 -330.5t-106.5 -330t-288.5 -119zM473 733q100 0 154.5 73t54.5 202q0 131 -54.5 203.5t-154.5 72.5q-96 0 -151.5 -72.5t-55.5 -203.5q0 -129 55.5 -202t151.5 -73z" />
<glyph unicode="&#xbb;" horiz-adv-x="1073" d="M700 0h-231l311 524l-311 523h231l312 -523zM262 0h-231l311 524l-311 523h231l311 -523z" />
<glyph unicode="&#xbc;" horiz-adv-x="1404" d="M215 -25h-195l979 1483h195zM311 580h-168v684h-112v125q111 0 145 55h135v-864zM1247 0h-164v176h-434v109l441 581h157v-532h111v-158h-111v-176zM860 334h223v291z" />
<glyph unicode="&#xbd;" horiz-adv-x="1495" d="M215 -25h-195l979 1483h195zM311 580h-168v684h-112v125q111 0 145 55h135v-864zM1415 0h-600q0 172 84 294t217 191q43 23 63.5 36.5t40 40t19.5 56.5q0 43 -30.5 72t-86.5 29q-117 0 -143 -133l-166 39q23 111 109 182.5t200 71.5q135 0 215 -74t80 -191 q0 -55 -16.5 -96t-53 -74.5t-69.5 -54t-94 -51.5q-119 -61 -170 -178h401v-160z" />
<glyph unicode="&#xbe;" horiz-adv-x="1650" d="M461 -25h-195l979 1483h195zM338 563q-117 0 -198 66.5t-115 185.5l168 45q16 -68 58 -102.5t93 -34.5q53 0 88 29.5t35 81.5q0 47 -33 78.5t-98 31.5h-64v160h62q51 0 76.5 26.5t25.5 69.5t-25.5 70.5t-72.5 27.5q-84 0 -119 -100l-164 59q39 92 113 146.5t174 54.5 q123 0 196.5 -72.5t73.5 -177.5q0 -113 -100 -178q61 -27 96 -81t35 -118q0 -123 -84 -195.5t-221 -72.5zM1493 0h-164v176h-434v109l440 581h158v-532h111v-158h-111v-176zM1106 334h223v291z" />
<glyph unicode="&#xbf;" horiz-adv-x="1026" d="M426 659h213v-41q0 -109 -37 -188.5t-88 -126.5t-103.5 -88t-89 -95t-36.5 -124q0 -92 59 -148.5t166 -56.5q125 0 193.5 73t68.5 206h213q0 -221 -131 -350.5t-344 -129.5q-207 0 -322.5 114t-115.5 292q0 92 36.5 163.5t89.5 116.5l103 91q51 45 88 108.5t37 145.5v38z M535 770q-66 0 -110 44t-44 105.5t44 106.5t110 45q63 0 109 -45t46 -106.5t-46 -105.5t-109 -44z" />
<glyph unicode="&#xc0;" horiz-adv-x="1425" d="M1339 0h-221l-114 330h-580l-117 -330h-221l518 1434h219zM938 518l-174 488q-37 100 -49 161q-18 -74 -49 -161l-177 -488h449zM971 1569h-217l-365 319h291z" />
<glyph unicode="&#xc1;" horiz-adv-x="1425" d="M1339 0h-221l-114 330h-580l-117 -330h-221l518 1434h219zM938 518l-174 488q-37 100 -49 161q-18 -74 -49 -161l-177 -488h449zM1036 1888l-364 -319h-217l290 319h291z" />
<glyph unicode="&#xc2;" horiz-adv-x="1425" d="M1339 0h-221l-114 330h-580l-117 -330h-221l518 1434h219zM938 518l-174 488q-37 100 -49 161q-18 -74 -49 -161l-177 -488h449zM1110 1569h-205l-192 162l-193 -162h-205l291 319h215z" />
<glyph unicode="&#xc3;" horiz-adv-x="1425" d="M1339 0h-221l-114 330h-580l-117 -330h-221l518 1434h219zM938 518l-174 488q-37 100 -49 161q-18 -74 -49 -161l-177 -488h449zM874 1591q-78 0 -185 49.5t-152 49.5q-90 0 -97 -91h-104q0 266 215 267q78 0 185.5 -49.5t152.5 -49.5q90 0 96 91h105q-1 -267 -216 -267z " />
<glyph unicode="&#xc4;" horiz-adv-x="1425" d="M1339 0h-221l-114 330h-580l-117 -330h-221l518 1434h219zM938 518l-174 488q-37 100 -49 161q-18 -74 -49 -161l-177 -488h449zM528.5 1599q-53.5 0 -91.5 38t-38 91.5t38 91.5t91.5 38t91 -38t37.5 -91.5t-37.5 -91.5t-91 -38zM897 1599q-53 0 -91 38t-38 91.5t38 91.5 t91 38t91 -38t38 -91.5t-38 -91.5t-91 -38z" />
<glyph unicode="&#xc5;" horiz-adv-x="1425" d="M1339 0h-221l-114 330h-580l-117 -330h-221l475 1317q-100 78 -100 201q0 102 74.5 174.5t177 72.5t177.5 -72.5t75 -174.5q0 -123 -101 -199zM938 518l-174 488q-37 100 -49 161q-18 -74 -49 -161l-177 -488h449zM713 1421q39 0 65.5 28t26.5 69t-26.5 68.5t-65.5 27.5 t-65.5 -27.5t-26.5 -68.5t26.5 -69t65.5 -28z" />
<glyph unicode="&#xc6;" horiz-adv-x="1718" d="M1647 0h-820v330h-442l-186 -330h-230l832 1434h801v-201h-562v-393h322v-201h-322v-438h607v-201zM496 520h331v598q-33 -70 -84 -162z" />
<glyph unicode="&#xc7;" horiz-adv-x="1331" d="M709 -489q-133 0 -205 77l104 76q25 -31 80 -31q45 0 74 25t29 66q0 39 -32 63.5t-79 24.5q-49 0 -82 -21l-41 51l109 138q-141 12 -249 80.5t-167.5 175t-88 227.5t-28.5 254q0 131 33 256t99.5 236.5t186 180t277.5 68.5q188 0 313 -83t175 -201l-195 -91 q-55 88 -121.5 129t-171.5 41q-102 0 -178 -49t-117 -131t-60.5 -171t-19.5 -185q0 -213 96.5 -375t278.5 -162q180 0 291 185l199 -76q-121 -283 -428 -309l-50 -82q113 0 169.5 -50.5t56.5 -126.5q0 -94 -70.5 -152t-187.5 -58z" />
<glyph unicode="&#xc8;" horiz-adv-x="1230" d="M1118 0h-934v1434h889v-201h-676v-393h437v-201h-437v-438h721v-201zM842 1569h-217l-365 319h291z" />
<glyph unicode="&#xc9;" horiz-adv-x="1230" d="M1118 0h-934v1434h889v-201h-676v-393h437v-201h-437v-438h721v-201zM989 1888l-364 -319h-217l290 319h291z" />
<glyph unicode="&#xca;" horiz-adv-x="1230" d="M1118 0h-934v1434h889v-201h-676v-393h437v-201h-437v-438h721v-201zM1022 1569h-205l-192 162l-193 -162h-205l291 319h215z" />
<glyph unicode="&#xcb;" horiz-adv-x="1230" d="M1118 0h-934v1434h889v-201h-676v-393h437v-201h-437v-438h721v-201zM440.5 1599q-53.5 0 -91.5 38t-38 91.5t38 91.5t91.5 38t91 -38t37.5 -91.5t-37.5 -91.5t-91 -38zM809 1599q-53 0 -91 38t-38 91.5t38 91.5t91 38t91 -38t38 -91.5t-38 -91.5t-91 -38z" />
<glyph unicode="&#xcc;" horiz-adv-x="602" d="M408 0h-213v1434h213v-1434zM559 1569h-217l-365 319h291z" />
<glyph unicode="&#xcd;" horiz-adv-x="602" d="M408 0h-213v1434h213v-1434zM625 1888l-365 -319h-217l291 319h291z" />
<glyph unicode="&#xce;" horiz-adv-x="602" d="M408 0h-213v1434h213v-1434zM698 1569h-204l-193 162l-192 -162h-205l291 319h215z" />
<glyph unicode="&#xcf;" horiz-adv-x="602" d="M408 0h-213v1434h213v-1434zM116.5 1599q-53.5 0 -91 38t-37.5 91.5t37.5 91.5t91 38t91.5 -38t38 -91.5t-38 -91.5t-91.5 -38zM485.5 1599q-53.5 0 -91.5 38t-38 91.5t38 91.5t91.5 38t91 -38t37.5 -91.5t-37.5 -91.5t-91 -38z" />
<glyph unicode="&#xd0;" horiz-adv-x="1402" d="M184 0v618h-133v197h133v619h402q180 0 316 -61.5t214 -166t116 -227.5t38 -262q0 -133 -36 -253t-111.5 -227.5t-216 -172t-328.5 -64.5h-394zM397 201h215q117 0 205 46t137.5 122.5t72 164t22.5 183.5q0 215 -104.5 365.5t-309.5 150.5h-238v-418h310v-197h-310v-417z " />
<glyph unicode="&#xd1;" horiz-adv-x="1454" d="M1270 0h-201l-620 973l-58 106l6 -106v-973h-213v1434h215l605 -957l59 -110l-6 108v959h213v-1434zM909 1591q-78 0 -185.5 49.5t-152.5 49.5q-90 0 -96 -91h-104q0 266 215 267q78 0 185.5 -49.5t152.5 -49.5q90 0 96 91h104q0 -267 -215 -267z" />
<glyph unicode="&#xd2;" horiz-adv-x="1515" d="M758 -25q-133 0 -241.5 43t-178.5 115t-117 170t-67.5 200.5t-20.5 213t20.5 213t67.5 201t117 170t178.5 114.5t241.5 43t241.5 -43t178 -114.5t116.5 -170t67.5 -201t20.5 -213t-20.5 -213t-67.5 -200.5t-116.5 -170t-178 -115t-241.5 -43zM757.5 180 q106.5 0 188.5 50.5t127 132t66.5 171t21.5 183.5q0 98 -21.5 189t-66.5 171t-127 128t-188.5 48t-188.5 -50t-127 -132t-66.5 -171t-21.5 -183q0 -98 21.5 -189.5t66.5 -171.5t127 -128t188.5 -48zM977 1569h-217l-365 319h291z" />
<glyph unicode="&#xd3;" horiz-adv-x="1515" d="M758 -25q-133 0 -241.5 43t-178.5 115t-117 170t-67.5 200.5t-20.5 213t20.5 213t67.5 201t117 170t178.5 114.5t241.5 43t241.5 -43t178 -114.5t116.5 -170t67.5 -201t20.5 -213t-20.5 -213t-67.5 -200.5t-116.5 -170t-178 -115t-241.5 -43zM757.5 180 q106.5 0 188.5 50.5t127 132t66.5 171t21.5 183.5q0 98 -21.5 189t-66.5 171t-127 128t-188.5 48t-188.5 -50t-127 -132t-66.5 -171t-21.5 -183q0 -98 21.5 -189.5t66.5 -171.5t127 -128t188.5 -48zM1124 1888l-364 -319h-217l291 319h290z" />
<glyph unicode="&#xd4;" horiz-adv-x="1515" d="M758 -25q-133 0 -241.5 43t-178.5 115t-117 170t-67.5 200.5t-20.5 213t20.5 213t67.5 201t117 170t178.5 114.5t241.5 43t241.5 -43t178 -114.5t116.5 -170t67.5 -201t20.5 -213t-20.5 -213t-67.5 -200.5t-116.5 -170t-178 -115t-241.5 -43zM757.5 180 q106.5 0 188.5 50.5t127 132t66.5 171t21.5 183.5q0 98 -21.5 189t-66.5 171t-127 128t-188.5 48t-188.5 -50t-127 -132t-66.5 -171t-21.5 -183q0 -98 21.5 -189.5t66.5 -171.5t127 -128t188.5 -48zM1157 1569h-205l-192 162l-193 -162h-205l291 319h215z" />
<glyph unicode="&#xd5;" horiz-adv-x="1515" d="M758 -25q-133 0 -241.5 43t-178.5 115t-117 170t-67.5 200.5t-20.5 213t20.5 213t67.5 201t117 170t178.5 114.5t241.5 43t241.5 -43t178 -114.5t116.5 -170t67.5 -201t20.5 -213t-20.5 -213t-67.5 -200.5t-116.5 -170t-178 -115t-241.5 -43zM757.5 180 q106.5 0 188.5 50.5t127 132t66.5 171t21.5 183.5q0 98 -21.5 189t-66.5 171t-127 128t-188.5 48t-188.5 -50t-127 -132t-66.5 -171t-21.5 -183q0 -98 21.5 -189.5t66.5 -171.5t127 -128t188.5 -48zM922 1591q-78 0 -185.5 49.5t-152.5 49.5q-90 0 -97 -91h-104 q0 266 215 267q78 0 185.5 -49.5t152.5 -49.5q90 0 96 91h105q0 -267 -215 -267z" />
<glyph unicode="&#xd6;" horiz-adv-x="1515" d="M758 -25q-133 0 -241.5 43t-178.5 115t-117 170t-67.5 200.5t-20.5 213t20.5 213t67.5 201t117 170t178.5 114.5t241.5 43t241.5 -43t178 -114.5t116.5 -170t67.5 -201t20.5 -213t-20.5 -213t-67.5 -200.5t-116.5 -170t-178 -115t-241.5 -43zM757.5 180 q106.5 0 188.5 50.5t127 132t66.5 171t21.5 183.5q0 98 -21.5 189t-66.5 171t-127 128t-188.5 48t-188.5 -50t-127 -132t-66.5 -171t-21.5 -183q0 -98 21.5 -189.5t66.5 -171.5t127 -128t188.5 -48zM575.5 1599q-53.5 0 -91.5 38t-38 91.5t38 91.5t91.5 38t91.5 -38 t38 -91.5t-38 -91.5t-91.5 -38zM944 1599q-53 0 -91 38t-38 91.5t38 91.5t91 38t91 -38t38 -91.5t-38 -91.5t-91 -38z" />
<glyph unicode="&#xd7;" d="M971 229l-324 324l-323 -326l-154 154l326 324l-324 323l147 148l324 -324l324 326l153 -154l-325 -324l323 -323z" />
<glyph unicode="&#xd8;" horiz-adv-x="1495" d="M348 -25h-215l146 213q-156 203 -156 529q0 111 20.5 213t67.5 200.5t116.5 170t178 114.5t242.5 43q195 0 335 -92l64 92h215l-148 -215q158 -205 158 -526q0 -111 -20.5 -213.5t-67.5 -200.5t-116.5 -170t-178 -115t-241.5 -43q-195 0 -336 93zM344 717q0 -193 72 -330 l547 801q-92 66 -215 65q-106 0 -188.5 -50t-127.5 -132t-66.5 -171t-21.5 -183zM748 180q106 0 188 50.5t127 132t66.5 171t21.5 183.5q0 193 -72 327l-547 -798q93 -66 216 -66z" />
<glyph unicode="&#xd9;" horiz-adv-x="1427" d="M713 -25q-244 0 -391.5 134.5t-147.5 433.5v891h213v-891q0 -201 86 -282t239.5 -81t240.5 81t87 282v891h213v-891q0 -299 -145 -433.5t-395 -134.5zM971 1569h-217l-365 319h291z" />
<glyph unicode="&#xda;" horiz-adv-x="1427" d="M713 -25q-244 0 -391.5 134.5t-147.5 433.5v891h213v-891q0 -201 86 -282t239.5 -81t240.5 81t87 282v891h213v-891q0 -299 -145 -433.5t-395 -134.5zM1077 1888l-364 -319h-217l290 319h291z" />
<glyph unicode="&#xdb;" horiz-adv-x="1427" d="M713 -25q-244 0 -391.5 134.5t-147.5 433.5v891h213v-891q0 -201 86 -282t239.5 -81t240.5 81t87 282v891h213v-891q0 -299 -145 -433.5t-395 -134.5zM1110 1569h-205l-192 162l-193 -162h-205l291 319h215z" />
<glyph unicode="&#xdc;" horiz-adv-x="1427" d="M713 -25q-244 0 -391.5 134.5t-147.5 433.5v891h213v-891q0 -201 86 -282t239.5 -81t240.5 81t87 282v891h213v-891q0 -299 -145 -433.5t-395 -134.5zM528.5 1599q-53.5 0 -91.5 38t-38 91.5t38 91.5t91.5 38t91 -38t37.5 -91.5t-37.5 -91.5t-91 -38zM897 1599 q-53 0 -91 38t-38 91.5t38 91.5t91 38t91 -38t38 -91.5t-38 -91.5t-91 -38z" />
<glyph unicode="&#xdd;" horiz-adv-x="1363" d="M788 0h-213v561l-503 873h243l367 -656l367 656h243l-504 -871v-563zM1047 1888l-365 -319h-217l291 319h291z" />
<glyph unicode="&#xde;" horiz-adv-x="1314" d="M397 0h-213v1434h213v-267h363q244 0 358.5 -127t114.5 -311q0 -172 -119 -305t-354 -133h-363v-291zM397 496h375q123 0 181.5 68.5t58.5 164.5q0 92 -56.5 163t-183.5 71h-375v-467z" />
<glyph unicode="&#xdf;" horiz-adv-x="1142" d="M627 -25q-109 0 -195 33l109 176q43 -12 88 -12q86 0 152.5 65.5t66.5 188.5q0 106 -70.5 180t-212.5 74h-45v197h45q94 0 151.5 50t57.5 144q0 88 -53 139.5t-152 51.5q-223 0 -223 -287v-1286l-213 -99v1379q0 248 126 368.5t308 120.5q188 0 304 -103.5t116 -271.5 q0 -102 -48 -181t-144 -114q127 -39 196.5 -133t69.5 -223q0 -211 -122 -334t-312 -123z" />
<glyph unicode="&#xe0;" horiz-adv-x="1089" d="M956 678v-678h-204v90q-111 -115 -287 -115q-166 0 -269.5 91.5t-103.5 259.5q0 170 117 258t285 88q154 0 258 -62v58q0 117 -53.5 166t-170.5 49q-172 0 -299 -95l-63 175q158 109 391 108q78 0 139.5 -13.5t125 -51t99 -121.5t35.5 -207zM504 164q147 0 248 112v160 q-96 51 -224 51q-102 0 -166.5 -39.5t-64.5 -121.5q0 -76 53.5 -119t153.5 -43zM815 1180h-217l-365 319h291z" />
<glyph unicode="&#xe1;" horiz-adv-x="1089" d="M956 678v-678h-204v90q-111 -115 -287 -115q-166 0 -269.5 91.5t-103.5 259.5q0 170 117 258t285 88q154 0 258 -62v58q0 117 -53.5 166t-170.5 49q-172 0 -299 -95l-63 175q158 109 391 108q78 0 139.5 -13.5t125 -51t99 -121.5t35.5 -207zM504 164q147 0 248 112v160 q-96 51 -224 51q-102 0 -166.5 -39.5t-64.5 -121.5q0 -76 53.5 -119t153.5 -43zM881 1499l-365 -319h-217l291 319h291z" />
<glyph unicode="&#xe2;" horiz-adv-x="1089" d="M956 678v-678h-204v90q-111 -115 -287 -115q-166 0 -269.5 91.5t-103.5 259.5q0 170 117 258t285 88q154 0 258 -62v58q0 117 -53.5 166t-170.5 49q-172 0 -299 -95l-63 175q158 109 391 108q78 0 139.5 -13.5t125 -51t99 -121.5t35.5 -207zM504 164q147 0 248 112v160 q-96 51 -224 51q-102 0 -166.5 -39.5t-64.5 -121.5q0 -76 53.5 -119t153.5 -43zM954 1180h-204l-193 161l-192 -161h-205l291 319h215z" />
<glyph unicode="&#xe3;" horiz-adv-x="1089" d="M956 678v-678h-204v90q-111 -115 -287 -115q-166 0 -269.5 91.5t-103.5 259.5q0 170 117 258t285 88q154 0 258 -62v58q0 117 -53.5 166t-170.5 49q-172 0 -299 -95l-63 175q158 109 391 108q78 0 139.5 -13.5t125 -51t99 -121.5t35.5 -207zM504 164q147 0 248 112v160 q-96 51 -224 51q-102 0 -166.5 -39.5t-64.5 -121.5q0 -76 53.5 -119t153.5 -43zM719 1202q-78 0 -185.5 49t-152.5 49q-90 0 -96 -90h-105q0 266 215 267q78 0 185.5 -49.5t152.5 -49.5q90 0 96 90h105q0 -266 -215 -266z" />
<glyph unicode="&#xe4;" horiz-adv-x="1089" d="M956 678v-678h-204v90q-111 -115 -287 -115q-166 0 -269.5 91.5t-103.5 259.5q0 170 117 258t285 88q154 0 258 -62v58q0 117 -53.5 166t-170.5 49q-172 0 -299 -95l-63 175q158 109 391 108q78 0 139.5 -13.5t125 -51t99 -121.5t35.5 -207zM504 164q147 0 248 112v160 q-96 51 -224 51q-102 0 -166.5 -39.5t-64.5 -121.5q0 -76 53.5 -119t153.5 -43zM372.5 1210q-53.5 0 -91 38t-37.5 91.5t37.5 91t91 37.5t91.5 -37.5t38 -91t-38 -91.5t-91.5 -38zM741.5 1210q-53.5 0 -91.5 38t-38 91.5t38 91t91.5 37.5t91 -37.5t37.5 -91t-37.5 -91.5 t-91 -38z" />
<glyph unicode="&#xe5;" horiz-adv-x="1089" d="M956 678v-678h-204v90q-111 -115 -287 -115q-166 0 -269.5 91.5t-103.5 259.5q0 170 117 258t285 88q154 0 258 -62v58q0 117 -53.5 166t-170.5 49q-172 0 -299 -95l-63 175q158 109 391 108q78 0 139.5 -13.5t125 -51t99 -121.5t35.5 -207zM504 164q147 0 248 112v160 q-96 51 -224 51q-102 0 -166.5 -39.5t-64.5 -121.5q0 -76 53.5 -119t153.5 -43zM557 1315q39 0 65.5 27.5t26.5 68.5t-26.5 68.5t-65.5 27.5t-65.5 -27.5t-26.5 -68.5t26.5 -68.5t65.5 -27.5zM557 1161q-102 0 -177 74t-75 176t75 175t177 73t177 -73t75 -175t-75 -176 t-177 -74z" />
<glyph unicode="&#xe6;" horiz-adv-x="1757" d="M1214 -25q-236 0 -366 166q-160 -166 -383 -166q-166 0 -269.5 91.5t-103.5 259.5q0 170 117 258t285 88q154 0 258 -62v58q0 117 -53.5 166t-170.5 49q-172 0 -299 -95l-63 175q158 109 391 108q229 0 320 -135q129 135 337 135q197 0 324 -125t127 -364q0 -88 -8 -138 h-703q2 -125 80 -202.5t183 -77.5q135 0 217 106l139 -143q-128 -152 -359 -152zM504 164q147 0 248 112v160q-96 51 -224 51q-102 0 -166.5 -39.5t-64.5 -121.5q0 -76 53.5 -119t153.5 -43zM1214 883q-109 0 -180 -63.5t-80 -194.5h496q-2 129 -72 193.5t-164 64.5z" />
<glyph unicode="&#xe7;" horiz-adv-x="1060" d="M528 -489q-133 0 -204 77l104 76q25 -31 80 -31q45 0 73.5 25t28.5 66q0 39 -31.5 63.5t-78.5 24.5q-49 0 -82 -21l-41 51l110 140q-180 23 -282.5 165t-102.5 375q0 256 123 402.5t334 146.5q305 0 395 -270l-202 -70q-51 135 -185 135q-119 0 -183.5 -91t-64.5 -253 q0 -160 63.5 -251t176.5 -91q152 0 197 154l202 -64q-78 -268 -348 -293l-49 -79q113 0 169 -50.5t56 -126.5q0 -94 -70.5 -152t-187.5 -58z" />
<glyph unicode="&#xe8;" horiz-adv-x="1120" d="M578 -25q-219 0 -347.5 146.5t-128.5 402.5t129 401.5t347 145.5q197 0 323.5 -125t126.5 -364q0 -88 -8 -138h-705q2 -125 81 -202.5t184 -77.5q135 0 217 106l139 -143q-127 -152 -358 -152zM578 883q-109 0 -181.5 -64.5t-81.5 -202.5h500q-2 135 -71.5 201t-165.5 66 zM838 1180h-217l-365 319h291z" />
<glyph unicode="&#xe9;" horiz-adv-x="1120" d="M578 -25q-219 0 -347.5 146.5t-128.5 402.5t129 401.5t347 145.5q197 0 323.5 -125t126.5 -364q0 -88 -8 -138h-705q2 -125 81 -202.5t184 -77.5q135 0 217 106l139 -143q-127 -152 -358 -152zM578 883q-109 0 -181.5 -64.5t-81.5 -202.5h500q-2 135 -71.5 201t-165.5 66 zM903 1499l-364 -319h-217l290 319h291z" />
<glyph unicode="&#xea;" horiz-adv-x="1120" d="M578 -25q-219 0 -347.5 146.5t-128.5 402.5t129 401.5t347 145.5q197 0 323.5 -125t126.5 -364q0 -88 -8 -138h-705q2 -125 81 -202.5t184 -77.5q135 0 217 106l139 -143q-127 -152 -358 -152zM578 883q-109 0 -181.5 -64.5t-81.5 -202.5h500q-2 135 -71.5 201t-165.5 66 zM977 1180h-205l-192 161l-193 -161h-205l291 319h215z" />
<glyph unicode="&#xeb;" horiz-adv-x="1120" d="M578 -25q-219 0 -347.5 146.5t-128.5 402.5t129 401.5t347 145.5q197 0 323.5 -125t126.5 -364q0 -88 -8 -138h-705q2 -125 81 -202.5t184 -77.5q135 0 217 106l139 -143q-127 -152 -358 -152zM578 883q-109 0 -181.5 -64.5t-81.5 -202.5h500q-2 135 -71.5 201t-165.5 66 zM395.5 1210q-53.5 0 -91.5 38t-38 91.5t38 91t91.5 37.5t91 -37.5t37.5 -91t-37.5 -91.5t-91 -38zM764 1210q-53 0 -91 38t-38 91.5t38 91t91 37.5t91 -37.5t38 -91t-38 -91.5t-91 -38z" />
<glyph unicode="&#xec;" horiz-adv-x="524" d="M369 0h-213v1047h213v-1047zM520 1180h-217l-364 319h290z" />
<glyph unicode="&#xed;" horiz-adv-x="524" d="M369 0h-213v1047h213v-1047zM586 1499l-365 -319h-217l291 319h291z" />
<glyph unicode="&#xee;" horiz-adv-x="524" d="M369 0h-213v1047h213v-1047zM659 1180h-204l-193 161l-192 -161h-205l291 319h215z" />
<glyph unicode="&#xef;" horiz-adv-x="524" d="M369 0h-213v1047h213v-1047zM78 1210q-53 0 -91 38t-38 91.5t38 91t91 37.5t91 -37.5t38 -91t-38 -91.5t-91 -38zM446.5 1210q-53.5 0 -91.5 38t-38 91.5t38 91t91.5 37.5t91 -37.5t37.5 -91t-37.5 -91.5t-91 -38z" />
<glyph unicode="&#xf0;" horiz-adv-x="1161" d="M750 1499l112 -108l-96 -101q293 -238 293 -739q0 -254 -122 -415t-357 -161q-207 0 -342.5 135.5t-135.5 342.5q0 209 133.5 345t323.5 136q92 0 169 -40t112 -103q-49 236 -207 362l-127 -133l-113 106l103 107q-98 39 -222 45v180q201 -6 357 -82zM578 733 q-115 0 -189 -77.5t-74 -202.5q0 -117 77 -197t188 -80q113 0 189.5 79t76.5 196q0 123 -75.5 202.5t-192.5 79.5z" />
<glyph unicode="&#xf1;" horiz-adv-x="1157" d="M1014 0h-213v625q0 125 -57.5 185t-151.5 60q-225 0 -225 -241v-629h-213v1047h213v-101q98 125 270 125q377 0 377 -446v-625zM752 1202q-78 0 -185.5 49t-152.5 49q-90 0 -97 -90h-104q0 266 215 267q78 0 185.5 -49.5t152.5 -49.5q90 0 96 90h105q0 -266 -215 -266z " />
<glyph unicode="&#xf2;" horiz-adv-x="1161" d="M579.5 -25q-221.5 0 -349.5 145.5t-128 401.5t128 402.5t349.5 146.5t350.5 -146.5t129 -402.5t-129 -401.5t-350.5 -145.5zM580 176q123 0 194.5 92t71.5 254t-72 255t-194 93q-121 0 -193 -93t-72 -255q0 -160 72 -253t193 -93zM838 1180h-217l-365 319h291z" />
<glyph unicode="&#xf3;" horiz-adv-x="1161" d="M579.5 -25q-221.5 0 -349.5 145.5t-128 401.5t128 402.5t349.5 146.5t350.5 -146.5t129 -402.5t-129 -401.5t-350.5 -145.5zM580 176q123 0 194.5 92t71.5 254t-72 255t-194 93q-121 0 -193 -93t-72 -255q0 -160 72 -253t193 -93zM903 1499l-364 -319h-217l290 319h291z " />
<glyph unicode="&#xf4;" horiz-adv-x="1161" d="M579.5 -25q-221.5 0 -349.5 145.5t-128 401.5t128 402.5t349.5 146.5t350.5 -146.5t129 -402.5t-129 -401.5t-350.5 -145.5zM580 176q123 0 194.5 92t71.5 254t-72 255t-194 93q-121 0 -193 -93t-72 -255q0 -160 72 -253t193 -93zM977 1180h-205l-192 161l-193 -161h-205 l291 319h215z" />
<glyph unicode="&#xf5;" horiz-adv-x="1161" d="M579.5 -25q-221.5 0 -349.5 145.5t-128 401.5t128 402.5t349.5 146.5t350.5 -146.5t129 -402.5t-129 -401.5t-350.5 -145.5zM580 176q123 0 194.5 92t71.5 254t-72 255t-194 93q-121 0 -193 -93t-72 -255q0 -160 72 -253t193 -93zM741 1202q-78 0 -185 49t-153 49 q-90 0 -96 -90h-104q0 266 215 267q78 0 185.5 -49.5t152.5 -49.5q90 0 96 90h104q0 -266 -215 -266z" />
<glyph unicode="&#xf6;" horiz-adv-x="1161" d="M579.5 -25q-221.5 0 -349.5 145.5t-128 401.5t128 402.5t349.5 146.5t350.5 -146.5t129 -402.5t-129 -401.5t-350.5 -145.5zM580 176q123 0 194.5 92t71.5 254t-72 255t-194 93q-121 0 -193 -93t-72 -255q0 -160 72 -253t193 -93zM395.5 1210q-53.5 0 -91.5 38t-38 91.5 t38 91t91.5 37.5t91 -37.5t37.5 -91t-37.5 -91.5t-91 -38zM764 1210q-53 0 -91 38t-38 91.5t38 91t91 37.5t91 -37.5t38 -91t-38 -91.5t-91 -38z" />
<glyph unicode="&#xf7;" d="M1126 600h-962v205h962v-205zM643 965q-57 0 -95 37.5t-38 91t38 92.5t95 39t96 -39t39 -92.5t-39 -91t-96 -37.5zM643 180q-57 0 -95 38t-38 91q0 55 38 93t95 38t96 -39t39 -92t-39 -91t-96 -38z" />
<glyph unicode="&#xf8;" horiz-adv-x="1161" d="M295 -25h-193l113 164q-113 147 -113 383q0 256 128 402.5t350 146.5q137 0 243 -59l41 59h195l-115 -164q115 -147 115 -385q0 -256 -129 -401.5t-350 -145.5q-141 0 -244 60zM580 176q123 0 194.5 92t71.5 254q0 113 -37 193l-352 -508q51 -31 123 -31zM315 522 q0 -113 33 -190l354 508q-51 31 -122 30q-121 0 -193 -93t-72 -255z" />
<glyph unicode="&#xf9;" horiz-adv-x="1157" d="M1004 0h-213v100q-98 -125 -271 -125q-377 0 -377 447v625h213v-625q0 -125 57.5 -185.5t151.5 -60.5q225 0 226 242v629h213v-1047zM827 1180h-217l-364 319h291z" />
<glyph unicode="&#xfa;" horiz-adv-x="1157" d="M1004 0h-213v100q-98 -125 -271 -125q-377 0 -377 447v625h213v-625q0 -125 57.5 -185.5t151.5 -60.5q225 0 226 242v629h213v-1047zM893 1499l-365 -319h-217l291 319h291z" />
<glyph unicode="&#xfb;" horiz-adv-x="1157" d="M1004 0h-213v100q-98 -125 -271 -125q-377 0 -377 447v625h213v-625q0 -125 57.5 -185.5t151.5 -60.5q225 0 226 242v629h213v-1047zM967 1180h-205l-193 161l-192 -161h-205l291 319h215z" />
<glyph unicode="&#xfc;" horiz-adv-x="1157" d="M1004 0h-213v100q-98 -125 -271 -125q-377 0 -377 447v625h213v-625q0 -125 57.5 -185.5t151.5 -60.5q225 0 226 242v629h213v-1047zM385 1210q-53 0 -91 38t-38 91.5t38 91t91 37.5t91 -37.5t38 -91t-38 -91.5t-91 -38zM753.5 1210q-53.5 0 -91 38t-37.5 91.5t37.5 91 t91 37.5t91.5 -37.5t38 -91t-38 -91.5t-91.5 -38z" />
<glyph unicode="&#xfd;" horiz-adv-x="1101" d="M1051 1047l-553 -1444h-217l161 415l-391 1029h211l258 -685q18 -47 29 -92q10 45 29 92l260 685h213zM872 1499l-364 -319h-217l291 319h290z" />
<glyph unicode="&#xfe;" horiz-adv-x="1150" d="M618 -25q-160 0 -251 115v-403l-213 -99v1770l213 100v-495q98 109 251 108q199 0 315 -146.5t116 -402.5q0 -254 -118 -400.5t-313 -146.5zM588 176q121 0 184.5 89t63.5 257q0 156 -65.5 252t-182.5 96q-147 0 -221 -118v-455q90 -121 221 -121z" />
<glyph unicode="&#xff;" horiz-adv-x="1101" d="M1051 1047l-553 -1444h-217l161 415l-391 1029h211l258 -685q18 -47 29 -92q10 45 29 92l260 685h213zM364.5 1210q-53.5 0 -91 38t-37.5 91.5t37.5 91t91 37.5t91.5 -37.5t38 -91t-38 -91.5t-91.5 -38zM733 1210q-53 0 -91 38t-38 91.5t38 91t91 37.5t91 -37.5t38 -91 t-38 -91.5t-91 -38z" />
<glyph unicode="&#x152;" horiz-adv-x="1830" d="M1759 0h-823q-84 -25 -188 -25q-133 0 -242 43t-178.5 115t-116.5 170t-67.5 200.5t-20.5 213.5q0 104 18.5 203.5t64.5 199t115.5 173t179 119.5t247.5 46q102 0 188 -24h778v-201h-573v-393h334v-201h-334v-438h618v-201zM748 180q102 0 180 45v983q-78 47 -180 47 q-106 0 -188.5 -50t-127.5 -132t-66.5 -172t-21.5 -184q0 -100 21.5 -191.5t66.5 -171.5t127.5 -127t188.5 -47z" />
<glyph unicode="&#x153;" horiz-adv-x="1859" d="M1317 -25q-238 0 -367 170q-129 -170 -370 -170q-221 0 -349.5 145.5t-128.5 401.5t128 402.5t350 146.5q240 0 370 -172q127 172 367 172q197 0 323.5 -125t126.5 -364q0 -88 -8 -138h-704q2 -125 79.5 -202.5t184.5 -77.5q135 0 217 106l139 -143q-127 -152 -358 -152z M1317 883q-109 0 -181.5 -64.5t-80.5 -202.5h499q-2 135 -71.5 201t-165.5 66zM580 176q123 0 194.5 92t71.5 254t-72 255t-194 93q-121 0 -193 -93t-72 -255q0 -160 72 -253t193 -93z" />
<glyph unicode="&#x178;" horiz-adv-x="1363" d="M788 0h-213v561l-503 873h243l367 -656l367 656h243l-504 -871v-563zM497.5 1599q-53.5 0 -91 38t-37.5 91.5t37.5 91.5t91 38t91.5 -38t38 -91.5t-38 -91.5t-91.5 -38zM866.5 1599q-53.5 0 -91.5 38t-38 91.5t38 91.5t91.5 38t91 -38t37.5 -91.5t-37.5 -91.5t-91 -38z " />
<glyph unicode="&#x2c6;" horiz-adv-x="819" d="M807 1180h-205l-192 161l-193 -161h-205l291 319h215z" />
<glyph unicode="&#x2dc;" horiz-adv-x="819" d="M571 1202q-78 0 -185 49t-153 49q-90 0 -96 -90h-104q0 266 215 267q78 0 185.5 -49.5t152.5 -49.5q90 0 96 90h104q0 -266 -215 -266z" />
<glyph unicode="&#x2000;" horiz-adv-x="944" />
<glyph unicode="&#x2001;" horiz-adv-x="1888" />
<glyph unicode="&#x2002;" horiz-adv-x="944" />
<glyph unicode="&#x2003;" horiz-adv-x="1888" />
<glyph unicode="&#x2004;" horiz-adv-x="628" />
<glyph unicode="&#x2005;" horiz-adv-x="471" />
<glyph unicode="&#x2006;" horiz-adv-x="313" />
<glyph unicode="&#x2007;" horiz-adv-x="313" />
<glyph unicode="&#x2008;" horiz-adv-x="235" />
<glyph unicode="&#x2009;" horiz-adv-x="376" />
<glyph unicode="&#x200a;" horiz-adv-x="104" />
<glyph unicode="&#x2010;" horiz-adv-x="808" d="M655 506h-501v205h501v-205z" />
<glyph unicode="&#x2011;" horiz-adv-x="808" d="M655 506h-501v205h501v-205z" />
<glyph unicode="&#x2012;" horiz-adv-x="808" d="M655 506h-501v205h501v-205z" />
<glyph unicode="&#x2013;" horiz-adv-x="1013" d="M911 496h-809v184h809v-184z" />
<glyph unicode="&#x2014;" horiz-adv-x="1177" d="M1188 496h-1198v184h1198v-184z" />
<glyph unicode="&#x2018;" horiz-adv-x="456" d="M233 895q-70 0 -115.5 48t-45.5 138q0 113 62.5 215.5t158.5 161.5l80 -51q-37 -33 -77 -93.5t-48 -119.5q55 -4 96 -44t41 -99q0 -68 -45.5 -112t-106.5 -44z" />
<glyph unicode="&#x2019;" horiz-adv-x="456" d="M164 895l-80 51q37 33 77 93.5t48 119.5q-55 4 -96 44t-41 100q0 68 45 111.5t106 43.5q70 0 116 -48t46 -138q0 -113 -62.5 -215.5t-158.5 -161.5z" />
<glyph unicode="&#x201a;" horiz-adv-x="456" d="M164 -289l-80 51q37 33 77 93.5t48 119.5q-55 4 -96 44t-41 100q0 68 45 111.5t106 43.5q70 0 116 -48t46 -138q0 -113 -62.5 -215.5t-158.5 -161.5z" />
<glyph unicode="&#x201c;" horiz-adv-x="913" d="M233 895q-70 0 -115.5 48t-45.5 138q0 113 62.5 215.5t158.5 161.5l80 -51q-37 -33 -77 -93.5t-48 -119.5q55 -4 96 -44t41 -99q0 -68 -45.5 -112t-106.5 -44zM690 895q-70 0 -116 48t-46 138q0 113 62.5 215.5t159.5 161.5l79 -51q-37 -33 -76.5 -93.5t-47.5 -119.5 q55 -4 96 -44t41 -99q0 -68 -45.5 -112t-106.5 -44z" />
<glyph unicode="&#x201d;" horiz-adv-x="913" d="M164 895l-80 51q37 33 77 93.5t48 119.5q-55 4 -96 44t-41 100q0 68 45 111.5t106 43.5q70 0 116 -48t46 -138q0 -113 -62.5 -215.5t-158.5 -161.5zM621 895l-80 51q37 33 76.5 93.5t48.5 119.5q-55 4 -96.5 44t-41.5 100q0 68 45 111.5t107 43.5q70 0 116 -48t46 -138 q0 -113 -62.5 -215.5t-158.5 -161.5z" />
<glyph unicode="&#x201e;" horiz-adv-x="913" d="M164 -289l-80 51q37 33 77 93.5t48 119.5q-55 4 -96 44t-41 100q0 68 45 111.5t106 43.5q70 0 116 -48t46 -138q0 -113 -62.5 -215.5t-158.5 -161.5zM621 -289l-80 51q37 33 76.5 93.5t48.5 119.5q-55 4 -96.5 44t-41.5 100q0 68 45 111.5t107 43.5q70 0 116 -48t46 -138 q0 -113 -62.5 -215.5t-158.5 -161.5z" />
<glyph unicode="&#x2022;" horiz-adv-x="831" d="M414 436q-123 0 -207 82t-84 199q0 119 84 201.5t207 82.5t209 -83.5t86 -200.5t-85 -199t-210 -82z" />
<glyph unicode="&#x2026;" horiz-adv-x="1910" d="M317.5 -25q-57.5 0 -95.5 38t-38 91q0 55 39 93.5t94 38.5q57 0 96.5 -39t39.5 -92.5t-39 -91.5t-96.5 -38zM954.5 -25q-57.5 0 -95.5 38t-38 91q0 55 38 93.5t95.5 38.5t96.5 -39t39 -92.5t-39 -91.5t-96.5 -38zM1591.5 -25q-57.5 0 -95.5 38t-38 91q0 55 39 93.5 t94 38.5q57 0 96 -39t39 -92.5t-38.5 -91.5t-96 -38z" />
<glyph unicode="&#x202f;" horiz-adv-x="376" />
<glyph unicode="&#x2039;" horiz-adv-x="634" d="M604 0h-231l-312 524l312 523h231l-311 -523z" />
<glyph unicode="&#x203a;" horiz-adv-x="634" d="M262 0h-231l311 524l-311 523h231l311 -523z" />
<glyph unicode="&#x205f;" horiz-adv-x="471" />
<glyph unicode="&#x20ac;" d="M809 444h-313q68 -264 284 -264q150 0 250 148l178 -111q-143 -242 -428 -242q-418 0 -512 469h-188l76 181h90q-2 31 -2 92q0 41 2 63h-164l76 181h110q45 217 175 357t358 140q205 0 375 -123l-84 -202q-137 121 -291 120q-238 0 -309 -292h528l-76 -181h-477 q-2 -23 -2 -63q0 -61 2 -92h418z" />
<glyph unicode="&#x2122;" horiz-adv-x="1640" d="M651 1286h-227v-717h-154v717h-229v148h610v-148zM1497 569h-151v516l-19 -51l-213 -497l-215 497l-20 58v-523h-154v865h158l215 -502l14 -41l14 41l215 502h156v-865z" />
<glyph unicode="&#xe000;" horiz-adv-x="1045" d="M0 1045h1045v-1045h-1045v1045z" />
<glyph unicode="&#xfb01;" horiz-adv-x="1193" d="M676 862h-236v-862h-213v862h-155v185h155v167q0 133 67.5 188.5t172.5 55.5q111 0 209 -49v-176q-88 37 -150 37q-86 0 -86 -94v-129h236v-185zM1038 0h-213v1047h213v-1047zM932 1210q-53 0 -91 38t-38 91.5t38 91t91 37.5t91 -37.5t38 -91t-38 -91.5t-91 -38z" />
<glyph unicode="&#xfb02;" horiz-adv-x="1196" d="M676 862h-236v-862h-213v862h-155v185h155v167q0 133 67.5 188.5t172.5 55.5q111 0 209 -49v-176q-88 37 -150 37q-86 0 -86 -94v-129h236v-185zM1032 0h-213v1378l213 101v-1479z" />
<glyph unicode="&#xfb03;" horiz-adv-x="1896" d="M1741 0h-213v1047h213v-1047zM1634 1210q-53 0 -91 38t-38 91.5t38 91t91 37.5t91 -37.5t38 -91t-38 -91.5t-91 -38zM1362 862h-236v-862h-213v862h-155v185h155v167q0 133 67.5 188.5t172.5 55.5q111 0 209 -49v-176q-88 37 -150 37q-86 0 -86 -94v-129h236v-185z M676 862h-236v-862h-213v862h-155v185h155v167q0 133 67.5 188.5t172.5 55.5q111 0 209 -49v-176q-88 37 -150 37q-86 0 -86 -94v-129h236v-185z" />
<glyph unicode="&#xfb04;" horiz-adv-x="1912" d="M1749 0h-213v1378l213 101v-1479zM1362 862h-236v-862h-213v862h-155v185h155v167q0 133 67.5 188.5t172.5 55.5q111 0 209 -49v-176q-88 37 -150 37q-86 0 -86 -94v-129h236v-185zM676 862h-236v-862h-213v862h-155v185h155v167q0 133 67.5 188.5t172.5 55.5 q111 0 209 -49v-176q-88 37 -150 37q-86 0 -86 -94v-129h236v-185z" />
</font>
</defs>
</svg>
